<?xml version="1.0" standalone="no"?>
<!DOCTYPE svg PUBLIC "-//W3C//DTD SVG 1.1//EN" "http://www.w3.org/Graphics/SVG/1.1/DTD/svg11.dtd" >
<svg>
<metadata>
Created by FontForge 20090622 at Tue Mar 15 14:25:42 2016
 By deploy user
</metadata>
<defs>
<font id="JennaSue" horiz-adv-x="271" >
  <font-face 
    font-family="Jenna Sue"
    font-weight="400"
    font-stretch="normal"
    units-per-em="1000"
    panose-1="0 0 0 0 0 0 0 0 0 0"
    ascent="750"
    descent="-250"
    x-height="300"
    cap-height="708"
    bbox="-198.8 -386.261 607 866.333"
    underline-thickness="50"
    underline-position="-50"
    unicode-range="U+0020-U+2212"
  />
<missing-glyph horiz-adv-x="134" 
 />
    <glyph glyph-name=".notdef" horiz-adv-x="134" 
 />
    <glyph glyph-name=".null" horiz-adv-x="0" 
 />
    <glyph glyph-name="nonmarkingreturn" horiz-adv-x="134" 
 />
    <glyph glyph-name="space" unicode=" " horiz-adv-x="160" 
 />
    <glyph glyph-name="space" unicode="&#xa0;" horiz-adv-x="160" 
 />
    <glyph glyph-name="b" unicode="b" 
d="M-17 642q3 0 7.5 2.5t9.5 1.5t9 -9t6 -28q2 -25 4 -61l4.5 -77.5t5.5 -86.5l6 -87.5l5.5 -79t4.5 -62.5q3 12 12 32.5t22.5 43t31.5 43t39 31.5q17 7 29 7.5t20.5 -3.5t14 -10t8.5 -11q12 -29 8.5 -67t-19 -75.5t-42.5 -68.5t-63 -45q-20 -8 -29 -8.5t-18 -0.5
q2 -15 1 -20t-3 -6q-4 -4 -13 -4.5t-18 1.5q-6 78 -11 151q-2 31 -4.5 64l-5 64t-4.5 58.5t-3 48.5q-1 38 -4.5 84l-6.5 85.5l-5 66.5t1 26zM151 265q-14 -8 -29.5 -28t-29 -48.5t-23 -62.5t-11.5 -68q20 -5 41 5.5t39 29.5t32.5 44t23 49.5t9.5 46t-8 34.5q-7 13 -21 9.5
t-23 -11.5z" />
    <glyph glyph-name="C" unicode="C" horiz-adv-x="375" 
d="M356 670q-8 -3 -33.5 -9t-60.5 -25t-73.5 -55.5t-71.5 -99.5q-11 -23 -21.5 -59.5t-18.5 -72t-12.5 -61.5t-2.5 -26q-7 -68 -0.5 -110t20.5 -66t33 -33.5t37 -11t32.5 2t18.5 3.5q29 12 55.5 32t49.5 45.5t42 55.5t34 62q4 5 10.5 10t12.5 8.5t10.5 4t4.5 -3.5
q-17 -55 -47.5 -100t-66 -79t-72 -56t-66.5 -31q-43 -8 -80.5 16.5t-59.5 92.5q-7 36 -10.5 80.5t3.5 88.5q6 85 31 157t63 127.5t86 91.5t100 49q4 0 15 -2t21.5 -6t16.5 -9t0 -11z" />
    <glyph glyph-name="c" unicode="c" horiz-adv-x="239" 
d="M167 293q1 -6 -9.5 -12t-26.5 -17.5t-35 -30.5t-34 -50q-16 -34 -23 -59t3 -59q3 -7 8.5 -12.5t16.5 -6.5q22 4 39 11t32 17t29 21.5l29 23.5q22 21 36.5 36.5t23.5 26t15.5 15.5t13.5 3q-4 -9 -22.5 -38t-48 -61.5t-68.5 -61t-84 -35.5q-18 1 -29.5 4t-21.5 24
q-12 25 -9 60.5t15 70.5t30 65t35 44q24 17 44.5 21t40.5 0z" />
    <glyph glyph-name="D" unicode="D" horiz-adv-x="614" 
d="M178 691q6 -6 8.5 -13t3 -15t0.5 -18.5t1 -24.5q52 -28 112 -57t112.5 -62.5t91.5 -73.5t51 -89q10 -61 -9.5 -116t-61.5 -99.5t-102 -75t-130 -43.5q-25 -5 -48.5 -3t-43 10.5t-33.5 23.5t-20 35q-1 12 3.5 20.5t9.5 12t8 2.5t-1 -9q0 -21 8 -33.5t20 -19.5t25 -10.5
t22 -5.5q-5 31 -9 77.5l-8.5 100t-8.5 110l-8 109t-8.5 96t-8.5 70.5q-27 12 -43 20.5l-27.5 15t-22.5 11.5t-28 10q-8 10 -4.5 16t5.5 17q25 -6 40 -11.5t25.5 -11t21 -10t28.5 -8.5q0 9 -0.5 13.5t-1 7.5t-1 5.5t-0.5 7.5q5 23 32 18zM213 340q2 -17 4.5 -43.5t5 -57
t5.5 -62.5t5 -60t4 -50t3 -32q23 -3 62.5 8t82 37.5t80 68.5t57.5 102q7 46 -5 83t-36.5 66.5t-59.5 53t-73.5 44t-78.5 38t-75 35.5q0 -9 2 -29t4 -45l4 -52t4 -50t3.5 -38t1.5 -17z" />
    <glyph glyph-name="d" unicode="d" horiz-adv-x="312" 
d="M353 526q-3 -18 -7 -38t-8.5 -38l-7.5 -31t-4 -16l-16 -44t-23.5 -56.5t-30.5 -59t-35 -50.5q0 -15 3.5 -50.5t8.5 -76.5l9.5 -80.5t5.5 -61.5q-5 -5 -9 2t-12 24q-6 26 -9.5 48t-6.5 44.5l-6.5 47.5t-10.5 57q-19 -24 -45.5 -54.5t-55 -54t-56 -33t-47.5 8.5
q-12 16 -10.5 37.5t12 44t27 44.5t33.5 41t32 33t22 20q14 9 23.5 14.5t17 9t15.5 5t20 0.5q-2 23 -2.5 55t0 64.5t2 60.5t4.5 43q2 22 9.5 46t19 46.5t25.5 40t30.5 25t34 3.5t34.5 -25q14 -17 14 -42.5v-53.5zM221 259q18 20 30 42.5t27 53.5q13 27 23.5 69t14.5 82.5
t0 70.5t-20 32q-14 2 -26 -10.5t-22 -31t-17 -39.5t-10 -37q-4 -20 -5.5 -36t-2 -33.5t-1.5 -38t-4 -50.5q0 -15 1.5 -30t4 -25.5t4.5 -16t3 -2.5zM76 166q-27 -28 -39.5 -51.5t-20.5 -43.5v-9.5t1.5 -12.5t6 -10.5t14.5 -2.5q10 4 16.5 8t12 8.5l12 9.5l16.5 13
q14 15 34.5 34t36 40t20.5 43t-13 43q-7 0 -14.5 -2t-18.5 -9.5t-26.5 -21t-37.5 -36.5z" />
    <glyph glyph-name="B" unicode="B" horiz-adv-x="490" 
d="M460 361q33 -18 38 -48.5t-9.5 -65t-42.5 -70.5t-61 -65q-4 -4 -11 -9.5l-14 -11t-13.5 -10t-9.5 -7.5q-48 -33 -97 -56.5t-105 -43.5q-25 -5 -44 -2t-31.5 10t-18.5 16t-5 16q24 -5 36.5 -5.5t19.5 1t10 4t8 4.5q1 23 1 41t0.5 33l1 29t1.5 29q-1 42 -2.5 75t-1.5 55
q-27 -11 -39.5 -17.5l-18.5 -9.5t-7.5 -3t-5.5 2t-5 7.5t-1 11.5q0 7 1 16q7 5 13 8.5l13.5 7.5l18.5 9.5t28 15.5q-1 35 -1.5 62t-2 52.5t-4 53.5l-5.5 64q0 4 -14 -1.5t-32 -16t-35.5 -24.5t-25.5 -28q-8 -9 -11.5 -17l-6 -13.5t-4 -6t-5.5 6.5q2 26 15 48.5t32 40
t41.5 30t43.5 20.5q1 11 0 17t1 11q5 1 15 10.5t14 9.5q2 -6 3 -11.5t2 -9.5q1 -5 2 -9q26 15 59 19.5t63.5 1t54 -14t31.5 -24.5q20 -27 14 -60.5t-24.5 -65.5t-44 -59t-43.5 -42q31 6 63 9t61.5 1.5t54.5 -6.5t42 -15zM132 574q-4 -63 1 -117t7 -112q26 11 53 29t51 43
t42 56t26 69q3 19 -12.5 32.5t-41.5 18t-59.5 0.5t-66.5 -19zM149 28q53 15 110 48t103.5 72.5t74.5 81t23 74.5q-4 22 -41.5 30.5t-88.5 6t-103.5 -14.5t-86.5 -30v-48.5t1 -75.5t3 -81t5 -63z" />
    <glyph glyph-name="E" unicode="E" horiz-adv-x="495" 
d="M460 684q-24 -14 -69.5 -31t-98 -34l-105.5 -34.5t-92 -33.5q2 -23 3 -39.5t2.5 -36t5 -48t10.5 -76.5q39 17 63 26.5t50 17.5t61.5 18l96.5 28q5 -1 12 -6.5t11.5 -12.5t4.5 -14t-7 -11q-42 -5 -82.5 -15.5t-76.5 -24t-67 -27.5l-55 -25q2 -47 10.5 -91t23 -79.5
t34 -58.5t43.5 -27q11 -2 31 -3.5t47 6.5t61 29.5t75 66.5q27 24 39 27t3 -9l-49.5 -54.5t-46.5 -46t-52 -35.5t-65 -21q-51 -11 -85 5.5t-55.5 54t-34.5 93.5t-23 124q-17 -2 -28 -6.5t-29 -16.5q-8 1 -6 8.5t10.5 18t21 22t24.5 19.5q-6 41 -11.5 85.5l-10.5 85t-7.5 73
t-2.5 49.5l9 4.5t6.5 2.5t8.5 1.5t16 1.5q2 -5 2.5 -14t0.5 -16q51 13 92 25l80 23.5l79 23t88 23.5q8 2 15.5 0.5t12.5 -5t7 -6.5t-1 -4z" />
    <glyph glyph-name="e" unicode="e" horiz-adv-x="250" 
d="M90 283l17 5.5t23 1.5q29 1 44.5 -15t2.5 -62q-19 -51 -50.5 -85t-74.5 -65q10 -26 30 -29t42 6.5t43 25.5t34 28q21 18 33.5 30.5t26.5 30.5q3 2 3.5 -0.5t-0.5 -7.5t-3 -14q-3 -7 -6 -12.5t-8.5 -12t-14.5 -15.5t-22 -24l-29 -27.5t-29.5 -23.5t-34 -14t-42.5 0
q-20 7 -32 15t-18.5 16.5t-9.5 15.5t-4 12q-5 20 -4 54t20 88q13 28 28 47.5t35 30.5zM46 106q13 7 30.5 19.5t33 29t27 36.5t12.5 42q3 15 -1 21q-2 3 -4 3q-17 8 -34 -5t-31 -37t-23.5 -53.5t-9.5 -55.5z" />
    <glyph glyph-name="F" unicode="F" horiz-adv-x="294" 
d="M86 676q3 2 7 -2q3 -3 6 -12t6 -26l53 11l44 10l43 10.5t51 11.5q18 2 28 4.5t15.5 4t8 2.5t5.5 0q2 -9 3 -13t0.5 -6t-2 -4l-4.5 -6q-13 -5 -37.5 -13t-53.5 -16.5l-58.5 -17t-53.5 -13.5q-4 -1 -10 -3l-12 -4q-7 -3 -15 -5q1 -18 1 -24.5t-0.5 -14.5t-1 -24.5
t1.5 -55.5q-1 -4 -0.5 -17t1.5 -28q1 -18 3 -39q18 3 34.5 10l37.5 16t49.5 19.5t70.5 20.5q6 -6 -2 -13t-23.5 -15t-35 -17t-36.5 -19q-22 -9 -36.5 -16.5t-24 -13t-16.5 -8t-14 -2.5q0 -10 1 -36t2.5 -60t3 -72.5t3.5 -73t4 -62.5t4 -41q-10 -2 -21.5 -3t-23.5 -1v60
q0 69 -2.5 135.5t-7.5 139.5l-19.5 -7.5t-10.5 -3.5t-8.5 -0.5t-13.5 2.5q2 8 -3.5 8t-5.5 6q3 9 10 13.5t15.5 7t17 5.5t14.5 10q-1 38 -2 65t-1.5 48.5t-2 42t-2.5 44.5q-10 -4 -18 -3.5t-13 6.5q-7 8 -7 18t1 13q-1 1 4.5 4l11.5 6q7 4 17 8q-1 13 1 24q2 9 6 17t13 8z
" />
    <glyph glyph-name="f" unicode="f" horiz-adv-x="219" 
d="M306 535h-15.5t-6 0.5t-1.5 1.5t-1 3q-2 0 -5.5 9.5t-9.5 20.5t-15.5 20.5t-22.5 9.5q-28 7 -46 -7.5t-29.5 -42t-17 -63.5t-8 -72.5t-2.5 -70t-1 -54.5q19 1 31.5 1.5t23 1t19.5 1t20 0.5q5 -1 10 -6t8.5 -11t5 -11t-0.5 -5q-18 -3 -32 -4l-27 -2t-26.5 -1.5t-30.5 -1.5
q1 -51 4 -91.5l5.5 -77l5 -71.5t3.5 -74q-2 -8 -10.5 -7.5t-17.5 1.5q-3 0 -4 1t-1.5 9t-1 27t-2 54t-4.5 90t-9 136q-23 -2 -37 -3t-24.5 -1.5t-20.5 -0.5t-25 -1q-7 0 -7 3.5t2.5 9t6 10.5t4.5 7q6 2 35 5t64 7q-5 96 1.5 160.5t19 104.5t28.5 59.5t30 25.5
q35 14 62.5 1.5t45.5 -33.5t25.5 -42.5t1.5 -25.5z" />
    <glyph glyph-name="G" unicode="G" horiz-adv-x="479" 
d="M302 641q3 -6 4 -9t0 -6t-4 -7l-9 -12q-3 -1 -29.5 -23.5t-60.5 -69.5t-67.5 -118.5t-49.5 -169.5q0 -4 -2.5 -22.5t-5 -44t-3.5 -56t3 -58.5q7 -18 15.5 -28t31.5 -24q27 -5 56 6t57 32.5t53 50.5t44.5 60t31.5 61.5t13 54.5q-7 0 -23.5 -7l-37 -16.5l-41.5 -19.5
t-36 -15q-13 6 -22.5 15t-7.5 29q9 0 28.5 7t45.5 17.5t55 24l56.5 27t50 26t35.5 21.5q9 0 19 6.5t19 6.5q-2 -11 -14.5 -26.5t-28 -30t-31 -27t-24.5 -17.5v-25.5t2.5 -47.5t10 -50t22.5 -33q-6 -20 -16 -20.5t-20 8.5t-17 24t-8 26l-48 -61.5t-55 -67.5
q-16 -14 -29.5 -24.5t-27 -19.5t-28 -16t-32.5 -13q-20 -6 -36.5 -8.5t-31 0t-27.5 12.5t-26 30q-23 50 -23.5 103t10.5 117q11 69 27 125t37.5 103.5t50.5 87.5t67 77q4 1 12 7t18.5 12.5t22.5 11.5t24 4z" />
    <glyph glyph-name="g" unicode="g" horiz-adv-x="319" 
d="M315 109q2 -2 -0.5 -7t-7 -11l-9 -11.5t-6.5 -7.5q-24 -27 -43 -46.5t-31 -33.5q0 -1 -0.5 -11.5t-0.5 -11.5q-2 -34 -1.5 -68.5t-4.5 -69.5q-6 -40 -12.5 -64.5t-13.5 -40t-14.5 -26l-16.5 -23.5q-8 -11 -18 -19t-27 -19q-23 -14 -48 -21t-46 -2.5t-35.5 22.5t-16.5 54
q-2 40 14 79t38 71t43 54l29 30q13 14 23.5 24t21.5 18.5l23.5 18.5l29.5 24q4 24 5 50.5t0 54.5q-18 -37 -38.5 -58t-37 -31.5t-27 -13t-8.5 -2.5q-19 -3 -30.5 -1.5t-18 6t-10 10.5t-5.5 12q-5 26 0.5 53.5t16.5 52.5t24 46t24 34q2 2 9.5 10.5t19.5 19t29.5 21.5t40.5 20
q23 5 47 4.5t39 -11.5q-8 -3 -24.5 -7.5t-21.5 -6.5v-2q0 -3 2 -3q-17 4 -53 -14t-78 -69q-19 -27 -29 -48.5t-14.5 -37t-4.5 -26.5t1 -17q1 -4 7 -7t15 -1q26 6 48.5 26.5t41 46.5t31.5 51t19 40q10 23 10.5 42.5t-1.5 19.5h1.5h2.5t0.5 -0.5t-6.5 -1.5q2 2 4 2.5t4 1.5
q-1 1 0.5 2.5t3.5 1.5q0 2 5 4l6 2l3 2q4 2 5 3t2.5 1t5.5 -1.5t14 -4.5q-9 -24 -15.5 -58.5t-11.5 -69.5t-8.5 -66.5t-6.5 -49.5q8 8 23.5 19l30.5 22zM189 -64q3 23 -1 28q-2 3 -5 2l-44 -37l-23 -20q-48 -45 -71.5 -79.5t-31.5 -63.5q-11 -32 -12.5 -56.5t12.5 -47.5
q25 -19 54.5 -7.5t54.5 35.5q29 33 47 92.5t20 153.5z" />
    <glyph glyph-name="H" unicode="H" horiz-adv-x="408" 
d="M229 706q5 2 19.5 3.5t25.5 -3.5q1 -4 2 -24.5l2.5 -50.5t3 -65t3.5 -67.5l3.5 -58t3.5 -36.5l41 8t27 4.5t20 2.5t22 4q17 1 26.5 1t14 -2.5t5 -6.5t0.5 -10q-15 -3 -34.5 -8.5l-40 -11.5l-41 -12.5t-38.5 -10.5q1 -8 3 -34t5 -61l6.5 -75t7.5 -77.5t8 -68.5t8 -46
q4 -11 4.5 -20t5.5 -28q-10 -4 -22.5 -6.5t-21.5 1.5q-5 12 -7.5 22t-4.5 22t-3.5 27t-4.5 38q-1 11 -2.5 34.5t-4 53.5l-5 63t-4.5 62.5t-3 52t-1 31.5l-31.5 -7l-28 -6l-32.5 -7l-44 -10q0 -21 1 -44.5t3 -60.5q1 -24 2.5 -74l3.5 -116q-10 -5 -22 -9.5t-20 -4.5
q-1 6 -1 39.5v78.5t-0.5 94.5t-2.5 88.5q-41 -13 -69.5 -19t-34.5 1q-2 0 1 9.5t8 17.5q16 3 27.5 5.5t21 5t19 6t23.5 9.5l-5.5 93t-6 76t-8.5 68.5t-13 72.5q5 8 20.5 16.5t34.5 1.5q-1 -44 1 -80.5t5 -73.5l6 -77t4 -89q23 3 55 13t76 19q0 25 -1 67t-4 86t-6.5 82.5
t-7.5 57.5q-1 7 -2 9.5t-1.5 3.5t-0.5 3t1 7z" />
    <glyph glyph-name="h" unicode="h" horiz-adv-x="266" 
d="M39 720q1 -3 2 -25.5t1.5 -57.5t0.5 -79.5t0.5 -91.5t0.5 -93v-84.5v-65v-35.5q11 49 31.5 81t37.5 34q20 4 30.5 -8.5t17 -34t13 -48t17.5 -50.5t30 -42.5t52 -22.5q-26 -22 -46.5 -20t-36.5 18t-28 41t-20 49t-13 42t-7 21q-6 8 -13 1t-14.5 -22t-14 -34.5t-11.5 -37
t-8 -29.5t-3 -11q-3 -13 -5 -34t-2.5 -41.5t0 -37t2.5 -20.5q-7 0 -20 4.5t-20 4.5v78.5v108t-0.5 127.5t-2 137.5t-3.5 138t-6 129.5q0 2 12 7.5t26 2.5z" />
    <glyph glyph-name="I" unicode="I" horiz-adv-x="167" 
d="M72 0q-7 -7 -12 -8t-10 1.5t-10.5 7t-11.5 7.5q-1 14 -4 62.5t-6 115.5l-6.5 143.5t-6 147.5l-4.5 128.5t-1 84.5q-2 -1 1.5 1t9.5 5t14 6.5t16 5.5q-1 -46 -1.5 -125t2 -175.5t9.5 -202.5t21 -205z" />
    <glyph glyph-name="i" unicode="i" horiz-adv-x="125" 
d="M56 440q10 2 12 -12t-4 -21q-11 -9 -14 -15.5t-14 -8.5q-6 1 -10.5 0.5t-7.5 16.5q4 11 12.5 22t25.5 18zM59 310q5 -48 7 -105.5t7 -120.5q4 -32 8 -50t6 -34q-16 -3 -25 0.5t-17 8.5q-2 16 -4.5 53t-5 80.5l-5 84.5t-4.5 65q4 2 6.5 6t5.5 7t8 5t13 0z" />
    <glyph glyph-name="J" unicode="J" 
d="M176 219q3 -12 4 -13q1 -2 2 -3q5 1 17.5 9.5l28 19l31 20.5t26.5 15q8 -2 8.5 -3t-1.5 -3q-56 -44 -104 -100q9 -82 15 -132l9.5 -81.5t4 -51t-1.5 -40.5q-2 -23 -7.5 -37.5t-13.5 -23.5t-17.5 -14.5t-18.5 -9.5q-21 -6 -38 -5.5t-30.5 5.5t-24 13.5t-18.5 18.5
q-9 10 -17 26.5t-11.5 40t-0.5 54.5t17 71q9 26 20 48.5t24 43.5t29.5 41.5l36.5 43.5q0 8 -4.5 42.5t-11.5 83t-16 105l-18 109l-17 95.5t-13 64q3 1 6.5 5l7 8t7.5 7.5t9 2.5q3 5 8.5 -14.5t12.5 -56t14.5 -86l15.5 -104l15.5 -110zM52 -129q7 -21 15 -33.5t17 -19.5
t19 -10.5l19 -6.5q-2 1 6 -0.5t13 0.5q11 2 19.5 8.5t15.5 14.5q10 11 10.5 41t-4.5 72.5t-13.5 94t-15.5 105.5q-21 -27 -40.5 -55.5t-34 -60.5t-22 -69t-4.5 -81z" />
    <glyph glyph-name="j" unicode="j" horiz-adv-x="156" 
d="M24 280q6 17 16 24.5t20 13.5q4 -9 8 -29t7.5 -44t6 -48t5.5 -41q2 -10 3.5 -22t3.5 -26q6 3 15 11t21 16t26.5 14t32.5 5q1 -1 4 -2.5t5 -3.5t1 -4t-7 -3q-12 -2 -29 -14t-32 -27t-25.5 -30.5t-10.5 -25.5q1 4 2 7q2 6 2 -1q-1 -38 1.5 -81t-0.5 -108q-3 -52 -7.5 -81
t-11 -45.5t-14.5 -26l-19 -22.5q-8 -8 -23.5 -16t-41.5 -8q-51 0 -70 77q-3 32 0 58.5t10 48.5t15.5 40t14.5 34l18.5 32t22 33.5l28.5 38.5l37 47q-2 14 -3 27q-2 11 -2.5 22t-1.5 17l-6.5 39.5t-7.5 42l-7.5 37t-6.5 24.5zM-56 -172q-6 -44 0.5 -77t26.5 -47
q8 -4 20.5 -5.5t22.5 1.5q26 12 37.5 47t15.5 80.5t2.5 95.5t-1.5 94q-1 10 -2 9.5t-6 -5.5q-19 -20 -37.5 -44.5t-34.5 -50.5t-27.5 -51.5t-16.5 -46.5zM35 432q9 1 10 -10.5t-3 -17.5q-9 -8 -11.5 -13t-11.5 -6q-5 1 -9 0.5t-6 13.5q3 8 10 17.5t21 15.5z" />
    <glyph glyph-name="K" unicode="K" horiz-adv-x="333" 
d="M97 349q4 -6 35.5 -25.5t73.5 -41.5t85.5 -41t72.5 -23q3 -10 4.5 -14.5t2 -7l1 -5t0.5 -8.5q-13 1 -41 9.5t-66 23t-83 34.5t-90 43q0 -47 -1.5 -92.5t-1.5 -92.5q0 -2 0.5 -18.5t0.5 -37v-39t-1 -24.5l-30 10q-1 11 -1 35v54.5v64t-0.5 64t-1.5 55t-2 35.5
q-3 3 -9.5 5.5t-12.5 6.5t-11.5 9.5t-6.5 13.5q4 8 17 15t23 16q-1 4 -2 23.5l-2.5 48t-3.5 61t-3 61.5t-1.5 51t-0.5 29q0 1 6 4t13.5 5t13.5 3t6 -3q2 -72 6 -132.5t5 -120.5q8 8 21.5 25.5l29.5 39.5l32.5 45.5l30.5 44t23.5 36t11.5 19.5l16.5 5l11 3.5t9.5 3t14 3.5
q-5 -12 -13.5 -26.5l-18 -29.5l-19 -29.5t-18.5 -26.5q-1 -2 -15 -23.5t-34 -49l-41 -55t-35 -39.5z" />
    <glyph glyph-name="k" unicode="k" horiz-adv-x="254" 
d="M68 196q23 -5 41.5 -8t37 -5.5t41 -4.5l53.5 -5q9 -10 12 -16.5t8 -20.5q-32 6 -58 9t-51.5 5t-52.5 3.5t-60 4.5q-1 -51 2 -90.5t0 -71.5q-6 -1 -9.5 2t-6.5 7l-6.5 8.5t-9.5 6.5q3 138 -1 254t-2 222q0 20 0.5 45.5t0.5 50t-1 44t-4 26.5q7 8 13.5 10t23.5 3
q2 -122 0 -241t0 -226q17 13 36 32l35.5 37l28.5 31.5t15 14.5q9 -8 18.5 -13.5t9.5 -4.5l-52 -59.5t-62 -49.5z" />
    <glyph glyph-name="L" unicode="L" horiz-adv-x="331" 
d="M54 696q2 -8 5 -36l7 -68.5l9 -91l10.5 -103.5t11.5 -105t13 -96t14 -77t14 -47q15 -14 34 -10t39 18.5t39 36.5t35.5 44t28.5 40.5t17 25.5q4 -6 7 -11q2 -5 3 -9.5t-1 -6.5q-12 -25 -28 -50.5t-33 -49t-34 -42t-30 -29.5q-31 -20 -52.5 -27t-48.5 13q-11 16 -17 35.5
t-10.5 46t-8.5 59.5l-9 76q-12 119 -23 199.5t-20 131.5t-15 76t-8 34q6 4 10.5 8.5t10 8t12.5 5.5t18 1z" />
    <glyph glyph-name="l" unicode="l" horiz-adv-x="115" 
d="M51 207q0 -3 3 -28l7 -61t9.5 -77.5t10 -79t8.5 -66t5 -36.5q-6 1 -10 2t-8 5t-9.5 11.5l-15.5 21.5q-13 92 -20.5 160.5l-12.5 111.5q-18 -24 -26 -32t-10 -8q-3 0 -1 9l2 10t2 9t3 7q7 10 12.5 20t8.5 18q4 10 6 19q-1 11 -1.5 19t-0.5 16.5t-0.5 17.5t-0.5 23v39.5v59
t1 68.5t2.5 68.5t4 59t5.5 40.5q7 29 21.5 44.5t30.5 18t31.5 -8t23.5 -32.5q9 -22 9 -57t-6 -76.5t-16.5 -86.5t-22.5 -87.5t-24 -79.5t-21 -62zM43 264q25 73 41 143.5t23.5 126.5t5 90.5t-14.5 35.5q-19 7 -30 -13t-17.5 -56t-8.5 -82.5t-1.5 -92.5t1.5 -87t1 -65z" />
    <glyph glyph-name="M" unicode="M" horiz-adv-x="623" 
d="M173 654q-1 1 0.5 2.5l2.5 2.5t0 1t-6 -1q-22 -9 -44.5 -36.5t-43 -65t-38.5 -79t-30.5 -77.5t-19 -61.5t-4.5 -30.5q-11 -5 -21.5 -5.5t-12.5 16.5q4 21 16 57t29 77.5t36.5 83.5t39.5 74q24 38 42 58t17 20q14 9 28 12.5t29 -2.5q9 -3 15 -19t9.5 -35.5t4.5 -39
t1 -28.5q0 -28 -1.5 -52.5l-3 -51.5t-3.5 -57.5t-3 -70.5q4 21 14.5 51t24.5 59t32 53t39 33q24 2 31 -23.5t10 -64.5q0 -4 1 -19.5t2.5 -36l3 -43t3.5 -40t4 -28t4 -7.5l26 44t29 45.5t30.5 37t30.5 19.5q17 4 27.5 -16.5t16.5 -55.5t9.5 -79t7.5 -86t9.5 -77.5t15.5 -53.5
q-14 -6 -24 3t-22 16q-3 10 -4.5 34.5l-3.5 55.5l-4 64.5t-5.5 62t-8.5 47t-12 20.5q-5 0 -7 2.5t-9 -5.5q-27 -30 -44.5 -58t-28 -50.5t-15 -38t-5.5 -18.5q-8 -22 -15 -60.5t-9 -80.5q-10 -3 -12.5 3.5t-11.5 15.5q1 5 1.5 31.5t0 65.5t-2 84.5t-4 88.5t-6.5 78t-9 53
q-6 1 -16 -10t-19.5 -26.5t-17.5 -30.5t-10 -22q-20 -54 -30.5 -90.5t-15 -62t-5.5 -43.5t-4 -36l-3.5 -47t-1.5 -39.5t1 -42t3 -53.5q-15 -1 -23 5.5t-25 22.5q1 10 3 33l4 48l3.5 44.5t1.5 21.5q3 37 4 62t2 45t1.5 39t0.5 45q1 23 1.5 39.5t0.5 40.5q0 3 0.5 33t0.5 68.5
t-1 77t-4 60.5z" />
    <glyph glyph-name="m" unicode="m" horiz-adv-x="377" 
d="M12 337q0 9 5 10.5t10.5 -0.5t11 -6.5t7.5 -6.5q2 -26 -2 -71t-4 -112q4 16 12 38t18.5 44.5t23 42t24.5 31t23 11.5t20 -17q2 -5 3.5 -20.5t2 -37.5t1.5 -49t3 -55l20.5 48.5t24.5 48t28 33.5t32 5q8 -3 11 -18.5t5 -36.5t4.5 -44.5t9.5 -42.5t20 -30.5t35 -8.5
q12 0 17.5 -0.5t8 -1.5t2 -3t-0.5 -6q-37 -19 -60.5 -12.5t-37 28t-19 52t-7.5 60.5q-2 13 -8.5 11t-16 -15t-20.5 -32.5t-21 -41.5t-17.5 -42.5t-11.5 -33.5q-5 -9 -16 -5t-14 15q-4 16 -4.5 39.5t0 47.5t1.5 46.5t0 38.5t-4 22t-11 -3q-17 -26 -31.5 -59t-25.5 -68.5
t-18.5 -71t-9.5 -64.5q-17 -4 -24 4.5t-12 17.5q2 13 3.5 50.5t3 85.5l3 98t2.5 87z" />
    <glyph glyph-name="N" unicode="N" horiz-adv-x="556" 
d="M173 705q22 2 32 -17.5t14 -47.5t3 -58t-1 -49v-41.5v-60t-0.5 -67t-1 -63t-0.5 -47.5v-21q2 2 6.5 21.5l11 47t15 58.5t17.5 57q1 3 6.5 24t16 43.5t26.5 39.5t39 12q18 4 31.5 -26t23 -79t16 -109l12 -114t10 -94t9.5 -51q16 -21 42 -3t59 59q2 -3 2.5 -11.5t-4 -21
t-17 -29t-35.5 -35.5q-36 -18 -58.5 -4.5t-30.5 43.5q-2 10 -6 46l-9 84t-11 100t-12.5 96t-14 72t-14.5 26q-6 4 -13 -5.5t-14.5 -27.5t-15 -42l-15 -48t-13 -44.5t-9.5 -32.5q-10 -34 -17 -62t-13 -60t-11 -72.5t-9 -97.5q-20 -2 -26 5t-17 13q0 19 0.5 61t0.5 94.5
t0.5 110t0.5 107.5q0 2 1.5 21t2.5 46t2 59.5t-0.5 62.5t-5 53.5t-11.5 33.5q-12 7 -28.5 -9t-35.5 -45.5t-38 -68t-35 -77t-27.5 -73t-15.5 -54.5q-3 -8 -9.5 -14t-13.5 -9t-13.5 -2.5t-9.5 5.5q9 36 24 78.5t34 86t40.5 84.5t44 72.5t45 51t43.5 19.5z" />
    <glyph glyph-name="n" unicode="n" horiz-adv-x="264" 
d="M47 305q0 -28 -0.5 -56l-1 -54t-1 -49t-1.5 -41q0 4 4.5 19.5t12.5 35.5l17.5 42.5t20.5 40t22.5 27.5t21.5 6q22 -10 31 -29t13 -43.5t8 -54.5t18 -63q6 -15 17.5 -22t22 -10t17 -3.5t4.5 -3.5q-25 -19 -43 -13t-30.5 26.5t-20.5 49t-14.5 55t-11.5 45t-11 18.5
q-9 -1 -19.5 -17t-21.5 -40t-21 -52.5l-18.5 -53.5t-13.5 -43t-6 -22q-15 0 -18.5 -1t-11.5 10q5 88 3.5 166.5t-4.5 136.5q0 9 4.5 9t10 -4l11.5 -8t10 -4z" />
    <glyph glyph-name="O" unicode="O" horiz-adv-x="345" 
d="M345 461q8 -57 2 -111.5t-21 -104t-37 -92t-46 -74t-47.5 -51.5t-41.5 -24q-39 -6 -60 0t-40 30q-19 25 -29.5 67.5t-15 90.5t-4.5 96.5t3 87.5q5 46 9 76.5t8.5 56t10 50.5t13.5 58q-14 1 -28 6t-26 11.5t-19.5 14t-7.5 13.5q92 -4 156 -18t105.5 -34t64.5 -43t34 -44
t13.5 -38zM49 260q2 -36 6.5 -73.5t14 -68.5t26 -50.5t43.5 -18.5q18 -2 35.5 10.5t34 33t31.5 47t26.5 53.5t20.5 51.5t13 40.5q8 33 9.5 65.5t-2 61t-9.5 52t-13 37.5q-20 38 -73 69t-126 36q-3 -11 -7 -35.5t-8.5 -57t-8.5 -69.5l-7.5 -72t-5 -64.5t-0.5 -47.5z" />
    <glyph glyph-name="o" unicode="o" horiz-adv-x="198" 
d="M5 300q19 -1 42 -5.5t45 -12t40.5 -17t30.5 -21.5q12 -11 14 -33.5t-3 -49.5t-15.5 -55.5t-23.5 -51.5t-28 -38t-28 -15q-22 0 -37 10.5t-24 25.5t-13.5 31.5t-5.5 28.5q-3 53 -1 94t7 68q-3 5 -6 9t-6 7.5t-7 6.5q4 2 8 6q8 6 11 12zM41 62q3 -4 8 -8.5t12.5 -7
t15.5 -0.5t17 11q24 25 36 51.5t15.5 50t-1 41.5t-14.5 26l-13.5 8.5t-14 6.5t-21.5 6.5l-34 9.5q-10 -32 -14 -64t-3.5 -58.5t4 -46t7.5 -26.5z" />
    <glyph glyph-name="P" unicode="P" horiz-adv-x="345" 
d="M208 280l10.5 -78t9.5 -79t5 -69t-2 -47.5t-12 -14t-26 31.5q0 69 -6.5 130.5t-16.5 123.5q-23 0 -45 7.5t-40 17t-28.5 20t-10.5 17.5q7 -2 22 -5t31.5 -5.5t33 -4t26.5 -1.5q-6 45 -11.5 81l-11 70l-11 69.5t-10.5 79.5q-31 13 -62.5 24t-60.5 25q-2 6 -3 8.5t-0.5 4.5
t3 4.5t8.5 7.5q8 2 37.5 -6.5t70 -24t87 -37t90 -44t78 -45t50.5 -41.5q15 -12 20.5 -28t3 -33t-12.5 -34t-25 -32q-15 -14 -35.5 -29.5t-44.5 -29t-52 -23t-59 -11.5zM195 326q47 0 83.5 10t61.5 28t36.5 42t7.5 50q-2 20 -27 40.5t-60.5 40t-75 38t-70.5 35.5
q2 -21 5.5 -45.5l8.5 -57t12.5 -76.5z" />
    <glyph glyph-name="p" unicode="p" horiz-adv-x="295" 
d="M234 274q4 -2 9.5 -5t10.5 -9t8.5 -15.5t3.5 -24.5q-2 -52 -26 -94t-57.5 -71t-69.5 -43t-61 -10q0 -97 1.5 -162t2 -106.5t0 -62.5t-3 -29t-9 -7.5t-16.5 2.5q-2 -3 -3 5q-1 7 -1.5 25t-0.5 56q0 3 -0.5 34.5t-1 79t-2 104.5t-3.5 111t-4.5 100t-6.5 71q0 2 -1 10
l-2.5 20t-4 26t-5.5 27q17 1 23 -3.5t12 -10.5q6 -19 11.5 -61t12.5 -114q2 10 10.5 28t22.5 38.5t32 40.5t38 34t40.5 19.5t40.5 -3.5zM108 49q46 19 72.5 49t38.5 59.5t12 52.5t-9 29q-20 13 -38 3t-35 -24q-9 -8 -25 -28.5t-32 -45.5t-27.5 -50.5t-11.5 -44.5q4 -5 12 -7
q6 -2 16.5 -1t26.5 8z" />
    <glyph glyph-name="Q" unicode="Q" horiz-adv-x="384" 
d="M56 655l-16.5 8.5t-12 5.5t-10.5 3.5t-13 3.5v31q6 -2 32.5 -7.5t65 -18.5t85.5 -35t95 -56q52 -37 79 -76.5t37 -79t5 -79.5t-17 -77q-9 -26 -23 -53t-30.5 -53t-34 -49t-33.5 -40q4 -27 14 -49t21.5 -38.5t23 -27t20.5 -15.5q23 -13 47 -12t47 12q2 -10 -1.5 -13.5
t-4.5 -5.5q-40 -20 -71.5 -15t-55.5 25t-41.5 48.5t-29.5 54.5q-4 -3 -15.5 -14t-29 -20t-40 -12t-47.5 9q-26 17 -42 57.5t-23 99.5t-6 134.5t9 164.5q1 6 2.5 29l3.5 52t4.5 58.5t5.5 49.5zM72 339q0 -3 0.5 -29t1 -58t2.5 -62t5 -43q5 -30 12.5 -52.5t27.5 -36.5
q15 -11 30 -10t28.5 7.5t23.5 16t15 17.5q-5 21 -8.5 43t-5.5 42.5t-4 37.5t-3 29q10 0 21 -6.5t24 -11.5q2 -16 3 -25.5l2 -18.5t3 -19.5t6 -27.5q16 18 40 52.5t41.5 79t21.5 96t-20 103.5q-10 20 -31.5 41.5t-49 41.5t-57 38t-54 31t-41 20.5t-17.5 7.5q-2 -22 -5 -63.5
l-6 -87t-4.5 -87.5t-1.5 -66z" />
    <glyph glyph-name="q" unicode="q" horiz-adv-x="304" 
d="M266 289q-2 -17 -4.5 -49t-4.5 -70.5t-3.5 -79.5t-1.5 -75q0 -24 -1 -58t-1.5 -72t0.5 -77t5 -74t12 -63t21 -43q-6 -4 -15 -3.5t-17.5 3.5t-15 7t-6.5 7q-7 0 -10 37t-3.5 100t0 144.5t0.5 170.5q-21 -24 -46.5 -44.5t-51 -31t-49.5 -7t-40 27.5q-7 15 -3 41.5t17 57.5
t35 62t50 54t62 33.5t71 1.5zM68 59q12 -20 40.5 -12t56.5 37t48.5 74.5t17.5 100.5q-26 2 -50 -10t-44 -31.5t-35.5 -44t-25 -47.5t-12 -41.5t3.5 -25.5z" />
    <glyph glyph-name="R" unicode="R" horiz-adv-x="553" 
d="M449 460q-15 -17 -48.5 -33.5t-74 -30.5t-81 -24.5t-68.5 -16.5q10 -27 24 -42l36 -37l57 -44.5t45.5 -33.5t44 -28.5l52.5 -30.5q40 -16 62 -23t34 -9.5t17 -2.5t11 -3q2 -6 -9 -8.5t-26 -2.5t-30.5 1.5t-22.5 3.5q-15 4 -35 11t-47 19.5t-60.5 33t-74.5 52.5
q-17 13 -31 22.5l-24 16.5q-11 8 -21 14l5.5 -34.5l7.5 -50.5l8.5 -58l8.5 -57t8 -48t7 -30q-15 -6 -29 -2t-21 3q-4 66 -13.5 139t-15.5 161q-1 3 -0.5 1.5t1 -2.5t0 0t-2.5 8q-11 15 -17.5 22.5t-12.5 13.5l-13 13.5t-20 23.5q3 4 15.5 7t27.5 8q-5 34 -8 63.5l-6 57.5
l-6 55.5t-7 58.5q-9 0 -46.5 1.5t-84.5 2.5q-8 5 -12.5 8.5t-2.5 19.5q17 2 43.5 1.5t54 -1.5t53 -3t41.5 -3q124 -14 195.5 -37.5t103.5 -49.5t30.5 -52t-22.5 -44zM162 386q33 6 78.5 19.5t87 29t70.5 32t28 30.5v9q-4 15 -32 31t-69.5 30t-90 26t-93.5 18q4 -44 8 -100
t13 -125z" />
    <glyph glyph-name="r" unicode="r" horiz-adv-x="210" 
d="M27 316q-1 9 9.5 4.5l21.5 -9.5q4 -23 6 -36.5t3 -25.5t2 -26t3 -37q9 23 22 42.5t33.5 33.5t49 20.5t68.5 4.5q0 -8 -5.5 -13.5t-25.5 -8.5q-29 -5 -50.5 -19.5t-37 -33.5t-25 -40.5t-15.5 -39.5q-1 -9 -2.5 -25.5t-2 -35l-1 -36t1.5 -27.5q1 -5 -4.5 -7.5t-12.5 -3.5
t-13 1t-6 7q2 103 -5.5 177.5z" />
    <glyph glyph-name="S" unicode="S" horiz-adv-x="459" 
d="M267 611q9 -20 11.5 -26t4.5 -20l-21 17t-18 12.5t-20 9.5t-26 7q-40 5 -75.5 -3t-60 -25.5t-34.5 -43t0 -55.5q11 -33 34 -63.5t52.5 -59.5t63 -54.5l64 -48l56.5 -40.5t40 -31q31 16 58 27l56 22h6q4 -1 1 -6q-9 -8 -21.5 -17l-25.5 -18.5l-25.5 -18.5l-22.5 -16
q29 -29 38 -52.5t1 -46t-33 -46t-65 -50.5q-26 -18 -56 -31t-55.5 -15.5t-41 9.5t-10.5 45q16 54 59 100t99 93q0 3 -19.5 17l-50 36t-67 51t-70 61t-59.5 67t-35 69q-12 43 -5.5 75t21 53.5t32 33.5t28.5 16q23 7 46.5 12t47.5 3t48.5 -13.5t49.5 -35.5zM185 -22
q-2 -7 5 -11.5t23 -3.5t40.5 9.5t58.5 28.5q25 17 38.5 37t16 39.5t-6.5 36t-30 26.5q-10 -5 -33.5 -23.5t-48 -42.5t-43.5 -50t-20 -46z" />
    <glyph glyph-name="s" unicode="s" horiz-adv-x="266" 
d="M110 315q25 -4 41.5 -11t26 -15.5t15 -17.5l10.5 -17q-1 -4 -9.5 1l-16.5 10q-22 14 -53 17t-57.5 -3.5t-42.5 -22.5t-8 -39t28.5 -40t45.5 -30.5t50 -24.5t41 -22l34 18.5t25 14t22.5 12l26.5 12.5q2 1 3.5 1t0 -2.5t-8 -8t-20.5 -15.5q-7 -5 -26 -17l-41 -26
q12 -11 19 -23q6 -11 8.5 -23.5t-4.5 -25.5q-20 -32 -45 -50t-46 -25q-14 -5 -31 -1t-27 16q-11 16 -5.5 32.5t18.5 32t30 29.5l30 25q-9 10 -35 24.5t-53.5 32t-49.5 37.5t-24 40q-4 22 5.5 42.5t28 36t43 23t51.5 3.5zM101 -28q11 -5 25 0t26.5 14.5t22 21t12.5 20.5
q3 8 -5.5 17.5t-17.5 15.5q-11 -8 -25 -20.5t-24.5 -25.5t-15.5 -25t2 -18z" />
    <glyph glyph-name="T" unicode="T" horiz-adv-x="255" 
d="M394 658q-34 1 -70 -1.5t-71 -6.5t-68 -9l-60 -9l6 -151t7.5 -151.5t11 -155.5t16.5 -164q0 -4 -7 -7t-15 -3t-15.5 2.5t-9.5 10.5q-4 48 -7 108l-6 122.5t-6.5 124t-7.5 113.5t-8.5 90t-9.5 54q-58 0 -122.5 -7l-124.5 -14q-10 -2 -17 1t-8.5 8t4.5 11t23 12
q72 13 139 21.5t132 15l131 13t136 16.5q5 0 11.5 -5.5t11 -13t6.5 -15t-2 -10.5z" />
    <glyph glyph-name="t" unicode="t" horiz-adv-x="280" 
d="M159 298q43 3 84.5 6.5l86.5 7.5q10 -1 13 -10.5t-8 -11.5q-37 -4 -85 -11t-91 -18q2 -31 2 -63.5t1.5 -64t6 -61t14.5 -54.5q14 -17 28 -20t26.5 1.5t23 14t18.5 18.5q7 7 11.5 0t-8.5 -21q-6 -7 -15 -15t-21.5 -13.5t-28 -7t-33.5 3.5q-23 6 -34 37t-16.5 72.5
t-7.5 86.5t-5 81q-44 -4 -64.5 -7t-29.5 -4t-12 1t-11 9q1 5 0.5 9.5t0 7.5t4 6t13.5 5q15 4 43.5 4.5t55.5 4.5q-1 32 -2 50t-2 31.5t-1.5 26.5t-0.5 34q0 5 5.5 7.5t12.5 3t13 -2t8 -7.5q3 -9 4 -26.5t1.5 -37t0.5 -39.5t-1 -34z" />
    <glyph glyph-name="U" unicode="U" horiz-adv-x="487" 
d="M45 663q6 -1 9.5 -9.5t5 -21t2.5 -26.5l2 -27q2 -16 6 -61l9.5 -103.5t12.5 -121.5t14 -114.5t14 -84t13 -28.5q21 -7 41 16.5t37 64.5t31 94.5t22.5 107.5t12 102.5t-0.5 80.5q-1 7 5.5 10t14.5 3t16 -3t10 -9q0 -34 -2 -80t-3 -97t-1 -102t3.5 -93.5t12 -73.5t24.5 -41
q27 -8 49 1t38.5 25t27.5 33.5l16 25.5q4 8 6 1t-3 -22q-13 -23 -31.5 -48t-40 -41.5t-45 -20t-47.5 16.5q-11 7 -20 31t-15 55t-8.5 65t-0.5 61q-30 -86 -52 -130t-38 -62t-26.5 -19t-17.5 -1q-11 -1 -20 -1t-17 5t-14.5 16.5t-12.5 33.5q-17 140 -30.5 286t-33.5 291
q0 5 3 10t22 5z" />
    <glyph glyph-name="u" unicode="u" 
d="M63 44q7 -5 23 17t31 56.5t25 73.5t6 68q0 6 5 7.5t11.5 1.5t13 -1t9.5 -2q-2 -22 -5.5 -55.5t-4.5 -66.5t2.5 -60t16.5 -35q11 -7 25.5 1t28 20l24.5 21.5t14 6.5q-4 -17 -17 -33t-29.5 -27t-35 -15.5t-33.5 1.5q-6 1 -9.5 11.5t-6 24.5t-4 30t-3.5 29l-18 -36t-20 -38
t-19 -31t-15 -15q-20 -8 -31 -3.5t-15 12.5q-6 3 -8.5 20.5t-4 44.5t-1.5 61v69.5t-1 70t-3 63.5q7 0 14 -1q6 -1 12 -2.5t10 -6.5q5 -23 1.5 -81t-5.5 -140q0 -3 0.5 -11.5t2 -18.5t5 -19t9.5 -12z" />
    <glyph glyph-name="V" unicode="V" horiz-adv-x="279" 
d="M175 -5q-16 -5 -20 -4t-11 15l-49 129.5l-56 148l-53.5 143t-41.5 115.5q0 6 6.5 7.5t14.5 1t14.5 -3t6.5 -5.5l41.5 -123.5l37.5 -107t42 -108.5l55 -128q31 118 52.5 230t34 201t18.5 145.5t8 64.5q0 5 6 7t13 2t12.5 -2.5t5.5 -6.5l-11.5 -81l-20.5 -136t-26.5 -161.5
t-28.5 -157.5t-27.5 -124t-22.5 -61z" />
    <glyph glyph-name="v" unicode="v" horiz-adv-x="240" 
d="M205 328q-1 3 3 1.5t9 -4.5t9.5 -7t4.5 -7q-11 -78 -43.5 -154t-80.5 -145q-13 -13 -24.5 -13t-16.5 11q-7 21 -12.5 53.5t-11 69t-12.5 74t-16 69.5q-5 17 1.5 20.5t28.5 -4.5q3 0 7 -25.5l9.5 -62t13 -76.5t18.5 -70q3 -2 12 12t21 36.5t25.5 52t25 60t19.5 59.5t10 50
z" />
    <glyph glyph-name="W" unicode="W" horiz-adv-x="465" 
d="M395 61q-2 -5 -7 -10t-11 -6.5t-12 2t-11 14.5q-20 36 -34.5 66.5t-26.5 64t-24 74l-28 96.5l-31.5 -95t-34 -97.5t-35.5 -88.5t-35 -67q-11 -15 -18.5 -20t-13 -3.5t-9 7.5t-5.5 11q-9 87 -15.5 167t-12.5 143t-12 104.5t-13 50.5q-2 18 12.5 27t28.5 4q4 -1 8 -33
t7.5 -79.5t7 -103.5t7 -103.5l6 -79t5.5 -31.5q3 -7 12.5 8t22 44.5t27 70l29 83.5t27.5 85.5l23 76.5q5 11 9 15t17 1q7 -3 11 -15t6 -30t5 -40t9 -44l13 -47.5t17.5 -58.5t20 -57.5t22.5 -43.5q6 -5 14.5 20.5t17.5 68.5t17.5 97t14.5 105t8.5 92.5t-0.5 60.5q0 12 1.5 17
t2.5 7.5t1 4.5t-2 8q-2 4 1.5 9.5t9 9.5t12 5t11.5 -4q3 -4 3 -17.5t-1.5 -34.5t-4 -49t-3.5 -61l-14.5 -105l-15.5 -106.5t-17.5 -101.5t-19.5 -88z" />
    <glyph glyph-name="w" unicode="w" horiz-adv-x="328" 
d="M50 38q3 0 9.5 7t16 29.5t23 63t30.5 107.5q4 14 12 8.5t12 -19.5q3 -5 12 -24.5l20 -42t22.5 -41t19.5 -19.5q10 -2 17.5 20t12 52t7 61t2.5 47q2 3 9 11t14 12.5t10 1t-2 -22.5q0 -49 -7.5 -91t-18 -73t-22.5 -48t-22 -17q-12 -1 -25.5 15.5t-25.5 37.5t-21.5 41.5
t-14.5 27.5q-6 -28 -18 -64.5t-26 -68.5t-29 -54t-28 -20q-12 9 -19.5 34.5t-12 60t-7 72.5t-3.5 73.5t-1 63v39.5q0 7 4.5 11.5t11 7.5t12.5 4t9 1q4 1 4 -7.5t-1.5 -28.5t-3 -53t0.5 -80q0 -14 1 -37.5t2.5 -45.5t4.5 -37.5t9 -14.5z" />
    <glyph glyph-name="X" unicode="X" horiz-adv-x="317" 
d="M230 596l-35 -167t-35 -151l27.5 -39l32 -43.5t39.5 -50.5l49 -60q10 -27 4.5 -36t-13.5 -8q-15 16 -29 32.5l-31.5 36.5l-39 46.5l-49.5 63.5q-7 -37 -18.5 -83l-23 -89t-22 -78t-15.5 -49q-11 -8 -19 -9t-8 5l21.5 91t14.5 66.5l11 56t13 61.5q5 24 7.5 38t3.5 22
q1 9 0 11l-48.5 79.5l-41 69t-33.5 62.5t-25 61q-2 7 0 9.5t6.5 1t9.5 -5.5t9 -10q18 -25 31 -46.5l27.5 -45t34 -51.5t49.5 -67l25.5 97l18 71.5t12 51.5t7.5 38q2 10 7.5 15.5t11.5 7t10 0t4 -4.5z" />
    <glyph glyph-name="x" unicode="x" horiz-adv-x="240" 
d="M3 356l24.5 -33l23 -33l24.5 -37.5l30 -47.5q11 29 19 54t12 57q2 8 11.5 4t15.5 -7q3 -7 1 -20t-6.5 -27t-9.5 -26.5t-7 -19.5l-4.5 -11.5t-4.5 -13.5l-6 -16q23 -56 44 -97.5t28 -62.5q0 -7 -11.5 -2.5t-20.5 12.5q-12 25 -26 48t-29 52q-5 -14 -12.5 -32.5l-15.5 -38
l-16 -38.5t-14 -35q-8 -10 -13.5 -12.5t-19.5 2.5l28.5 70.5l17.5 45t12 35.5t12 43q-11 15 -24.5 37.5l-27 45l-26 42.5t-21.5 29q-7 10 -4.5 23t16.5 10z" />
    <glyph glyph-name="Y" unicode="Y" horiz-adv-x="205" 
d="M189 279q-9 -52 -22 -115t-27 -120.5t-27 -101.5t-23 -57q-12 -2 -25.5 1t-7.5 14q19 42 37 100q15 50 31.5 122t27.5 168q-17 0 -32 7.5t-28 18t-25 23.5t-22 25q-15 19 -30.5 52t-28.5 70t-21.5 73.5t-11.5 61.5q0 5 5.5 7t13.5 2t16.5 -1.5l14.5 -2.5
q10 -101 35.5 -161.5t51.5 -93.5q31 -39 67 -55q7 42 10.5 97t4.5 105.5t0 87.5t-2 45q7 10 15.5 10t25.5 -7q1 -27 0.5 -61t-2.5 -70.5t-4.5 -74t-5.5 -70l-5.5 -59t-5.5 -40.5z" />
    <glyph glyph-name="y" unicode="y" horiz-adv-x="306" 
d="M76 70q23 -11 52.5 34.5t47.5 147.5q0 1 6.5 0t13.5 -3t13 -5t6 -5q0 -15 -2 -36l-4.5 -46t-3.5 -53t0 -56q27 23 57.5 35t58.5 15q10 -5 10.5 -6.5t-4.5 -5.5q-38 -11 -66.5 -30t-54.5 -42q0 -32 1 -69t1 -74t-0.5 -73t-4 -65t-10 -49.5t-17.5 -27.5q-8 -5 -18.5 -6.5
t-21 -0.5t-20 4.5t-15.5 9.5q-19 19 -27 48.5t-8 64.5t8 72t21.5 71t33 61.5t42.5 42.5q3 54 3 106q-10 -26 -29 -56t-47 -47q-31 -14 -52.5 3t-26.5 52q-5 41 -8 68t-5 51t-3.5 50t-4.5 65q5 3 15 1.5t15 -6.5q3 0 4 -16t2 -41t3 -54.5t6.5 -56t12 -46.5t20.5 -26zM178 -14
q-6 -7 -12.5 -13.5t-12.5 -14.5q-13 -16 -25 -43t-20.5 -59t-11.5 -64.5t1.5 -58t18.5 -40t39 -11.5q10 2 16 23t8.5 51.5t3 67t-0.5 70t-2.5 58.5t-1.5 34z" />
    <glyph glyph-name="Z" unicode="Z" horiz-adv-x="395" 
d="M300 643q-3 -45 -14 -100.5t-26 -114.5t-31.5 -117l-31 -107l-24.5 -85.5t-12 -51.5l67.5 47.5l62 44l62 44l67.5 47.5q14 8 15.5 6.5t-6.5 -16.5l-76.5 -60.5l-77.5 -65l-72 -61l-58 -47.5q-23 -12 -33.5 -10t-5.5 36q17 71 39 138l43 135t39 139t27 150q0 9 -24 -8.5
t-59.5 -51t-76 -76.5t-73.5 -84q-11 -3 -18 0t-10.5 9t-3.5 12.5t3 9.5q15 12 45 43l67 67l75.5 71.5t71.5 57.5q15 11 24.5 14t15 1t7.5 -7t2 -9z" />
    <glyph glyph-name="z" unicode="z" horiz-adv-x="360" 
d="M230 303q11 1 14.5 -6.5t-4.5 -27.5q-19 -51 -39.5 -99t-44.5 -93q23 9 43 19l41 20l43.5 20t49.5 19q16 0 21.5 1.5t11.5 -9.5q-36 -13 -67 -30t-60.5 -36l-59 -38.5t-61.5 -35.5q-5 0 -10.5 2.5t-10 6.5t-7 8t-0.5 6l32.5 56t33 60.5t28 61t17.5 58.5q-5 2 -20.5 -6.5
l-39.5 -21t-54.5 -26.5t-66.5 -23q-2 0 -5.5 -0.5t-5.5 1t0.5 5.5t12.5 12q11 6 37 21.5l57 32.5t62 29.5t52 12.5z" />
    <glyph glyph-name="question" unicode="?" horiz-adv-x="424" 
d="M194 165q-7 -6 -12.5 -4t-10 6.5t-9 11t-8.5 9.5q-6 11 6.5 31l36 55.5t54.5 89.5t61 134q15 37 20 62t4 40t-6.5 22.5t-11.5 10.5q-36 19 -71.5 9.5t-66.5 -35t-55.5 -61.5t-38.5 -71q-17 13 -11 42.5t28.5 62.5t58 61t76.5 38q26 6 51 5.5t43 -11.5t27 -34t4 -62
q-5 -33 -18.5 -74.5t-32 -85t-39 -86l-37.5 -77.5l-29 -58.5t-13 -30.5zM214 50q4 -8 4.5 -12.5t-0.5 -8.5t-3 -9t-4 -13q-17 -4 -27 -4t-27 4q-9 16 -6 27t13 16t23.5 5t26.5 -5z" />
    <glyph glyph-name="comma" unicode="," horiz-adv-x="115" 
d="M46 49q11 2 17 -0.5t14 -4.5q-4 -19 -18 -45t-31.5 -49t-34 -39t-26.5 -16q-5 4 3.5 16.5l22 32t29 46t24.5 59.5z" />
    <glyph glyph-name="colon" unicode=":" horiz-adv-x="120" 
d="M29 225q3 13 14 21t22.5 9t20 -5.5t6.5 -21.5q-1 -8 -9 -14t-18.5 -8t-20.5 2t-15 17zM92 60q0 -11 -5 -19.5t-13.5 -13.5t-19.5 -5.5t-23 5.5q-4 16 2.5 26t17.5 14t22.5 2t18.5 -9z" />
    <glyph glyph-name="semicolon" unicode=";" horiz-adv-x="161" 
d="M69 61q1 4 7.5 7.5t14.5 4.5t16 -1.5t12 -10.5q-5 -19 -22 -45.5t-37.5 -51t-40 -41t-29.5 -16.5q-5 4 3.5 16.5l22 32t29 46t24.5 59.5zM60 247q3 13 13 21t20.5 9t18.5 -5t6 -21q-1 -8 -8.5 -14t-17 -8t-19 2t-13.5 16z" />
    <glyph glyph-name="backslash" unicode="\" horiz-adv-x="344" 
d="M295 -47q-5 -7 -14 -7t-20 3q-5 7 -14.5 41t-22.5 85l-27.5 113.5l-30 127.5l-30 127l-27 112.5l-21 84t-12.5 40.5q0 7 4.5 13.5t11.5 12t14.5 8t13.5 1.5q9 -58 25 -135l34.5 -159t38.5 -162.5l36.5 -146l27.5 -108.5z" />
    <glyph glyph-name="slash" unicode="/" horiz-adv-x="195" 
d="M58 -67q-13 -7 -33 10q-1 9 3.5 44t12.5 86.5t19 115l22.5 129l22.5 129l19.5 114.5t13.5 85t4 42q3 6 10 10.5t15 6.5t16.5 2t13.5 -4q-15 -57 -30.5 -134t-30.5 -159.5t-28.5 -164.5l-24 -148.5l-17.5 -111t-8 -52.5z" />
    <glyph glyph-name="period" unicode="." horiz-adv-x="96" 
d="M17 23q3 13 13 21t20.5 9t18.5 -5t6 -21q-1 -8 -8.5 -14t-17 -8t-19 2t-13.5 16z" />
    <glyph glyph-name="quotedblleft" unicode="&#x201c;" horiz-adv-x="202" 
d="M137 657q4 -18 12.5 -37t15 -35.5t10 -28t-1.5 -14.5q-10 -3 -20 10t-19 33t-17 42t-12 37q7 9 15.5 5t16.5 -12zM32 696q10 2 13 1.5t13 -5.5q3 -28 8.5 -51t12.5 -44t16 -41l19 -43q-3 -6 -16 -5t-19 4q-8 18 -16.5 44.5t-15.5 51l-12 41.5t-7 17q-3 11 -3.5 19t7.5 11
z" />
    <glyph glyph-name="quotedblright" unicode="&#x201d;" horiz-adv-x="185" 
d="M38 592q9 16 15.5 35l12.5 36t11.5 28t11.5 11q9 -4 8 -20.5t-7.5 -37.5t-15.5 -43t-16 -36q-11 -2 -15 7t-5 20zM90 492q-9 5 -11 7.5t-5 13.5q16 23 27.5 43.5t20 40.5t15 41l14.5 45q3 1 7.5 -1.5t8.5 -6t7 -7.5t4 -7q-6 -20 -17.5 -45l-22.5 -47.5l-19 -39t-6 -17.5
q-5 -11 -10 -17t-13 -3z" />
    <glyph glyph-name="dollar" unicode="$" horiz-adv-x="518" 
d="M194 609q3 -27 8.5 -58t10.5 -66l16.5 8t11.5 5t10 4.5t13 5.5q-1 15 -5.5 30t-3.5 28q10 0 19 -1.5t13 -4.5q0 -8 1 -18.5t4 -27.5h25l23 -2t23 -6q6 -9 7.5 -10.5t-6.5 -3.5q-11 2 -27.5 -0.5t-40.5 -7.5l5 -57.5t4 -41t4.5 -38t5.5 -48.5q68 -9 112.5 -19.5
t49.5 -29.5q4 -30 -15 -50.5t-45.5 -33.5t-52 -20t-33.5 -9q5 -36 7 -57t1 -39q-11 -4 -21 1t-9 7q-2 22 -2.5 43.5t-2.5 39.5q-20 -3 -36 -4t-26 0q2 -46 4 -76l4 -58q-7 0 -15 1.5t-13 5.5q-2 5 -3 20.5t-1.5 34.5t-1.5 38.5t-1 33.5q-5 0 -17.5 2.5t-27.5 8.5t-29.5 16.5
t-24.5 28.5q-2 4 -1.5 7t2.5 2q10 -6 24 -13t27.5 -12.5t25.5 -8t17 -0.5q-1 22 -1 34t-0.5 22.5t-1.5 23.5t-2 37q-21 6 -41 12.5t-35.5 17t-24.5 27.5t-8 43q0 5 2.5 13t12 19.5t28 26.5t50.5 35l-5.5 28.5t-4.5 25t-5.5 27.5l-8.5 38q2 22 28 20zM220 452q3 -25 4 -39.5
l2 -28t2 -30.5t5 -48q14 -3 24.5 -4t29.5 -3l-5 43.5l-4 35.5t-5 40t-7 58l-12 -5t-9.5 -4t-10 -5.5zM128 353q5 -10 11 -15.5t15 -9.5t21 -7.5t28 -9.5q-2 25 -2.5 37t-1 22t-1.5 23l-3 40q-2 0 -14.5 -6t-26 -17t-22.5 -25.5t-4 -31.5zM239 157h18t13 1l12.5 2t16.5 3
q-3 29 -3.5 52.5t-4.5 49.5q-17 2 -31 3.5t-26 4.5q0 -22 0.5 -35t1 -24t1.5 -23.5t2 -33.5zM328 168q17 4 38.5 10t39.5 14.5t29.5 19.5t9.5 25q-2 8 -14.5 12t-31 6.5t-40 4t-39.5 4.5q1 -12 1 -19t0.5 -15t2 -22z" />
    <glyph glyph-name="numbersign" unicode="#" horiz-adv-x="557" 
d="M329 373q26 4 47 8t38.5 7t33 5t31.5 2q14 -11 16 -13.5t-5 -7.5q-19 -4 -60.5 -14t-97.5 -22q1 -22 3 -39.5t1 -39.5l34.5 8t25 5t23 3.5t28.5 3.5q14 1 17.5 -1.5t6.5 -13.5q-5 -9 -19.5 -14t-34.5 -9.5l-41.5 -9t-39.5 -11.5q1 -23 3 -38.5t3.5 -30t2.5 -31.5t1 -44
q-13 1 -17 3.5t-9 13.5q-6 14 -9 32.5t-4.5 36.5t-2 32t-1.5 19l-33.5 -7.5t-30.5 -6.5q0 -14 2 -32.5l4 -35.5t2.5 -31t-2.5 -19q-11 -3 -17.5 -1t-11.5 6q-2 12 -2.5 26.5l-1 29.5t-1 28t-1.5 21q-12 -2 -26 -5.5l-28.5 -7t-26.5 -5.5t-19 -1q-6 15 -5.5 22t11 11t32.5 8
t58 12l-3 26.5t-1.5 15.5t-1.5 15l-3 25l-71.5 -10.5t-58.5 -3.5q-5 7 -5.5 10.5t6.5 8.5q9 7 24.5 12t32.5 9.5t35 7.5t32 5q-3 26 -5 46t-4 37.5l-4 34.5t-5 37q13 2 17 3t15 -4q3 -6 6 -22t6 -37l6.5 -45l6.5 -46q12 4 23 7t20 5q11 3 20 4q-1 10 -3 36.5t-5 55.5t-7 53
t-9 29q15 17 22.5 18.5t13.5 -9.5q8 -14 12 -40t6 -53.5t3 -51t2 -31.5zM232 313l2 -25t1.5 -24t1 -19t0.5 -10q13 5 31 8t32 8q-1 10 -1 17.5t-0.5 16t-1 18.5t-2.5 25q-11 -2 -22 -4.5l-20 -4.5z" />
    <glyph glyph-name="quotedbl" unicode="&#x22;" horiz-adv-x="171" 
d="M126 635q0 -18 3.5 -38.5l6.5 -38t4 -29.5t-4 -14q-11 -1 -18 14t-11.5 36.5t-7 45t-3.5 39.5q9 7 16.5 1.5t13.5 -16.5zM33 697q10 0 13 -1t11 -9q-3 -28 -3 -51.5t2.5 -45.5t6.5 -43.5t9 -45.5q-5 -5 -17.5 -2t-17.5 8q-4 20 -6 47.5t-3.5 52.5l-2.5 43t-3 19
q0 11 1.5 19t9.5 9z" />
    <glyph glyph-name="percent" unicode="%" horiz-adv-x="494" 
d="M430 218q12 -5 17.5 -21t-1.5 -42q-7 -20 -13.5 -44.5t-17 -44.5t-26.5 -31t-42 -5q-3 2 -13.5 6t-13.5 9q-8 17 -7.5 30.5t4.5 32.5q2 14 7 33.5t12 34.5q20 47 94 42zM354 73q6 -6 15 0t18 18t16 28t10.5 30.5t2 24.5t-11.5 10q-11 3 -25.5 -8t-24.5 -29t-12 -38.5
t12 -35.5zM252 -38h-31q-8 0 -16 10t0 42q17 65 32.5 135.5t29.5 142.5l28 143t29 138q-20 -9 -39.5 -21.5l-39.5 -26t-40.5 -26t-41.5 -19.5q-8 -24 -19.5 -47.5t-27 -41.5t-36 -28.5t-47.5 -8.5q-15 1 -16.5 26t5.5 57t20 63t27 43q12 15 20.5 14t21.5 1q5 1 16 -1
t22.5 -5.5t20 -10t9.5 -14.5q38 18 77 32t75 41q5 20 6 33t3 21.5t7 14t17 10.5q5 2 11 2q12 0 29 -8q0 -6 0.5 -8t0.5 -5t-1.5 -10.5t-6.5 -25.5q-15 -18 -29 -56.5t-26.5 -88.5t-24 -107.5t-21 -115t-17 -111l-13.5 -94l-9.5 -65t-4.5 -24.5zM59 393q25 10 45 33.5
t27 46.5t-2.5 38.5t-43.5 10.5q-13 -20 -23 -43.5t-14.5 -43.5t-2 -32.5t13.5 -9.5z" />
    <glyph glyph-name="ampersand" unicode="&#x26;" horiz-adv-x="418" 
d="M181 228q7 -14 13.5 -25.5t14 -23.5l16.5 -26t23 -34q12 22 21.5 44.5l17 41t14 31.5t13.5 16q5 -1 12 -15t11 -23q-11 -13 -17.5 -26.5t-13 -28.5l-15 -33t-22.5 -40q11 -20 20 -33t17 -23l15.5 -19l16.5 -19q16 -19 28.5 -25.5t19.5 -8.5t8.5 -4.5t-2.5 -12.5
q-30 -1 -50.5 8.5t-36 25t-28 36l-25.5 42.5q-11 -12 -28.5 -25t-37.5 -20t-40 -4.5t-36 21.5q-17 26 -6 75t36 131l-43.5 98.5t-43.5 111.5q-18 43 -18 88t16 79.5t47.5 50.5t77.5 0q36 -15 54.5 -44.5t23 -68t-1.5 -82.5t-17.5 -87t-26 -82t-27.5 -67zM191 607q-4 3 -13 8
t-20.5 9t-24 5t-23.5 -3q-18 -8 -28 -24t-13 -36.5t-0.5 -44t8.5 -47.5q6 -23 15.5 -52.5t20.5 -58t23 -52.5t24 -37l21 50t22.5 61t17.5 65.5t7.5 63.5t-8 54t-29.5 39zM143 41q8 -9 21 -7t26 9.5t24 19t15 22.5l-20 29.5l-14.5 21l-14 19.5t-18.5 26q-3 -12 -10.5 -31
t-13 -39t-6 -39t10.5 -31z" />
    <glyph glyph-name="quotesingle" unicode="'" horiz-adv-x="113" 
d="M58 700q9 -2 11 -9.5t2 -18.5q-2 0 -2.5 -17t-1 -40.5t-1.5 -49.5t-5 -45q-6 -4 -19.5 -7t-18.5 2l7.5 43.5t5.5 41t1 42.5t-5 49q8 7 11.5 8t14.5 1z" />
    <glyph glyph-name="asterisk" unicode="*" horiz-adv-x="209" 
d="M91 621q2 1 4 -5t4 -14.5t3.5 -18.5t1.5 -16q8 8 12 16.5t16 25.5q10 0 17 -9q-4 -11 -7.5 -16.5t-7.5 -9t-8 -7.5t-9 -11q16 0 26.5 3.5l24.5 8.5q12 3 14 -15q-17 -6 -26.5 -10t-23.5 -7q4 -8 9 -12.5l10 -9t11 -11t12 -18.5q-4 -1 -8 -1t-12 4q-15 8 -21.5 15
t-20.5 15q2 -14 2.5 -21.5t1 -14t1 -14t2.5 -20.5q-11 -2 -14.5 0t-8.5 10q0 12 -3 25t-3 26q-6 -5 -12.5 -15.5t-8.5 -19.5q-8 -5 -10 -3t-7 4q6 13 9.5 20l5.5 11t3.5 7.5t2.5 10.5q-3 0 -10.5 -2.5t-15.5 -5.5t-14 -5t-7 -2q-2 6 -2 10.5t-1 9.5q13 2 23 6.5t27 4.5
l-18.5 16.5t-19.5 14.5q4 7 11 7.5t15 -2.5t15.5 -7.5l12.5 -7.5q-2 12 -3 19.5t-1.5 12.5t-1.5 8t-2 8q-1 8 2 10t8 2z" />
    <glyph glyph-name="parenleft" unicode="(" horiz-adv-x="183" 
d="M174 647q20 5 20 -13q-38 -48 -61 -94t-35.5 -87t-17.5 -76.5t-6 -62.5q-3 -89 5 -150t21 -104t28 -71t26 -51q9 -14 5 -20t-14 -13q-16 24 -31 53.5t-27 59.5t-21.5 59.5t-14.5 55.5q-8 39 -11 69.5t-3.5 55t0.5 45t2 38.5q13 82 35 138t43 91.5t37.5 53t19.5 23.5z" />
    <glyph glyph-name="parenright" unicode=")" horiz-adv-x="204" 
d="M40 -84q-20 -7 -20 12q36 49 57.5 95.5t33 88.5t15.5 77.5t4 62.5q0 89 -10 150t-24 103t-30 69.5t-28 50.5q-10 14 -6 20t14 13q17 -24 32.5 -52.5t29 -58.5t23.5 -59.5t16 -54.5q9 -38 13 -68.5t5.5 -55.5t1 -45t-0.5 -38q-11 -83 -31 -139.5t-40 -92.5t-36 -54
t-19 -24z" />
    <glyph glyph-name="one" unicode="1" horiz-adv-x="270" 
d="M109 590h32q-4 -63 -1 -131.5t9 -139.5t13 -142.5t11 -141.5q-3 -8 -7 -8.5t-11 -0.5q-19 -5 -23 9q0 60 -4.5 132.5t-10 142l-10.5 128.5t-7 92q0 8 -1 19.5t-1.5 21.5t1.5 16t10 3z" />
    <glyph glyph-name="zero" unicode="0" horiz-adv-x="302" 
d="M252 414q7 -101 -4.5 -174t-31.5 -121t-43 -73t-39 -31q-23 -6 -35 -0.5t-24 25.5q-11 22 -17.5 58.5t-9.5 78.5t-3 84.5t2 75.5q3 40 4.5 67t4 49l5 43.5t7.5 50.5q-16 2 -21.5 14t-5.5 23q72 -6 113.5 -29.5t63 -51.5t27.5 -53.5t7 -35.5zM71 237q1 -31 4.5 -62.5
t10 -57t17 -41t26.5 -14.5q15 -2 29.5 20.5t26 54.5t20 66.5t12.5 56.5q4 28 4.5 56.5t-1.5 53t-6 45t-8 32.5q-11 33 -38 59t-70 30q-2 -9 -4.5 -30.5l-5.5 -49.5l-6.5 -60t-6 -62t-4 -55.5t-0.5 -41.5z" />
    <glyph glyph-name="two" unicode="2" horiz-adv-x="412" 
d="M191 579q13 -11 12.5 -43t-9 -77.5t-22.5 -100l-29 -111l-28.5 -110t-20.5 -97.5q27 13 62.5 35.5t71 48.5t67 52.5t51.5 47.5q7 0 10 -4.5t4 -11.5t0.5 -15t-0.5 -15q-66 -53 -135.5 -101t-144.5 -92q-11 -5 -16.5 -4t-10.5 9q6 47 18.5 104t27.5 115.5l29.5 114.5
t24 101.5t11 76t-9.5 38.5q-2 7 -22.5 -7t-46.5 -40.5t-50 -60t-32 -66.5q-6 -2 -8.5 -2t-5 0.5t-5.5 1t-9 0.5q-6 18 13 48t47 62t57 59.5l44 41.5q13 8 25.5 12t29.5 -10z" />
    <glyph glyph-name="three" unicode="3" horiz-adv-x="406" 
d="M243 529q4 -16 1.5 -32t-8.5 -30.5t-15.5 -28t-19.5 -24.5q-24 -27 -56 -50q30 14 62 17t61 -4.5t53.5 -24.5t38.5 -44q20 -39 15 -87t-31.5 -93.5t-73 -82.5t-108.5 -53q-21 -6 -42.5 -9t-38 -4.5t-27 -1.5t-10.5 2l13 21q69 5 121 28.5t87 57t52 72t16 74.5t-20.5 65
t-58.5 42q-29 10 -57.5 7t-54 -12.5t-46.5 -21.5l-34 -20q-6 -2 -7.5 8t2.5 21q33 21 63 47t51 52t31.5 50.5t4.5 41.5t-21.5 25t-38 2.5t-49.5 -27t-55 -62.5l-8 4q-7 4 -6 6q27 48 61.5 76t66 36t55.5 -3t31 -40z" />
    <glyph glyph-name="four" unicode="4" horiz-adv-x="328" 
d="M238 598q1 -11 0 -34.5l-2.5 -57t-4 -74.5t-3.5 -86q20 3 33 6.5t22 0.5q8 -4 12.5 -13.5t-1.5 -17.5q-21 -2 -38.5 -8.5l-31.5 -11.5q-2 -36 -2.5 -87l-1 -99.5t-2.5 -86.5t-7 -50q-2 -2 -8 -2.5t-13 0t-12 1.5t-5 3q3 14 6.5 46t6.5 75t5 93.5t2 100.5
q-14 -3 -39.5 -11t-52.5 -15.5t-51.5 -13.5t-36.5 -4q6 26 15 53l18.5 54t18 54.5t13.5 56.5q3 9 12 14t29 0q1 -7 -8 -33.5l-20.5 -57.5l-23 -60t-15.5 -41q38 8 73 18.5t69 23.5l6 90.5t5 80t2.5 59t-2.5 27.5q0 2 2.5 5.5t6.5 5.5t10 1.5t14 -5.5z" />
    <glyph glyph-name="five" unicode="5" horiz-adv-x="417" 
d="M334 572q3 -3 6.5 -8.5t5 -11.5t1.5 -10.5t-4 -5.5q-28 1 -55.5 -3.5t-55 -11.5l-55 -14.5t-55.5 -12.5q-6 -11 -9 -31t-3 -40t2.5 -35.5t5.5 -18.5q30 -5 60.5 -13t59 -19.5t53 -25t42.5 -29.5q34 -30 44 -63t4.5 -63t-22.5 -55t-36 -40q-24 -18 -57 -29.5t-69.5 -13.5
t-74 6t-70.5 28q-3 3 1.5 7t11.5 7l18 8q33 -17 73 -22t77.5 3.5t66.5 30.5t39 59q9 34 -0.5 60.5t-31.5 47t-51.5 35t-59 25.5t-55.5 18.5t-41 13.5q-23 9 -21 42.5t6 88.5q-6 3 -9.5 3.5t-5.5 1t-3 2t-3 7.5q-3 16 0.5 24.5t7.5 9.5q34 5 64.5 13.5l61.5 16.5t64 13.5
t72 4.5z" />
    <glyph glyph-name="six" unicode="6" horiz-adv-x="354" 
d="M128 567q-27 -55 -39.5 -111t-15 -109t2 -100t12 -84t15.5 -62t12 -33q6 25 16 52.5t23 51.5t27 42.5t29 27.5q9 8 26 13.5t35.5 6t35.5 -5.5t25 -19q8 -12 5.5 -32t-13.5 -43.5t-29.5 -48.5t-42.5 -46.5t-52 -37t-59 -19.5q-2 -7 0.5 -15.5t0.5 -10.5q-16 -2 -24 1.5
t-11 8.5q-2 4 -3 5.5t-1 4.5v7.5t2 14.5q-21 25 -33 62.5t-18 74.5q-20 125 -6 227t49 190q8 2 13.5 0.5t9.5 -4.5q4 -4 8 -9zM145 42q32 2 65 25.5t58 53t36.5 56.5t1.5 35q-30 23 -58 8.5t-50 -46.5t-36 -70t-17 -62z" />
    <glyph glyph-name="seven" unicode="7" 
d="M234 619q8 4 9 -18.5t-2 -62.5t-9 -93l-12.5 -109.5t-12 -111.5t-7.5 -99q-3 -29 -1.5 -49t1.5 -35q-4 -4 -16 0t-14 16q-3 68 1 132.5t11 128l13.5 127.5t8.5 133q-8 3 -33.5 -2t-57 -12.5l-61.5 -14t-45 -5.5q-7 1 -11 6t-6 23q26 7 56.5 13.5t63 12.5t64 11t60.5 9z
" />
    <glyph glyph-name="eight" unicode="8" horiz-adv-x="288" 
d="M211 528q9 -3 18.5 -9t6.5 -27q-9 -31 -17 -56t-16.5 -48t-18 -45l-20.5 -46q22 -26 36 -66.5t16.5 -82.5t-8 -78.5t-36.5 -52.5q-19 -10 -29 -9t-22 13q-12 13 -18 35t-7.5 47.5t1 53t6.5 52.5q2 9 5.5 22t8.5 25l11 30q-7 15 -23 33t-31 40t-25 48.5t-6 58.5
q-1 16 9.5 32t18.5 23q24 20 60 22.5t80 -15.5zM144 323q4 12 15 36.5t21.5 50.5t16.5 47t0 26q-16 11 -37.5 18t-38.5 2q-34 -14 -42 -37.5t0 -49t26.5 -50.5t38.5 -43zM159 51q17 3 23.5 29.5t4.5 61t-11.5 68.5t-23.5 52q-7 -16 -13 -39.5t-9.5 -48.5t-4.5 -49.5
t2.5 -42.5t11 -27t20.5 -4z" />
    <glyph glyph-name="nine" unicode="9" horiz-adv-x="297" 
d="M252 590q2 3 -1 -18.5t-8 -53l-10.5 -66.5t-8.5 -60q0 -3 -2.5 -30.5t-5 -68.5t-6 -89t-6 -92.5t-3.5 -79t0 -48.5q-12 -2 -16 -1.5t-16 6.5q2 67 5.5 124.5t7.5 114.5l8.5 116.5t10.5 130.5q-19 -18 -42.5 -33t-47 -21.5t-43.5 -2.5t-32 25q-8 18 7.5 48.5t46.5 57.5
t73.5 41.5t88.5 -0.5zM73 461q9 -17 30 -11.5t44 22.5t42.5 42t25.5 48q-33 2 -61.5 -10t-49 -29t-29.5 -35t-2 -27z" />
    <glyph glyph-name="hyphen" unicode="-" horiz-adv-x="250" 
d="M177 239q3 0 4 -4t0.5 -9.5t-2 -10.5t-2.5 -7q-11 1 -35 0.5t-50 -2t-47 -4t-25 -6.5q-5 19 1.5 30t22.5 10q18 0 31.5 0.5t27.5 0.5t31 0.5t43 1.5z" />
    <glyph glyph-name="plus" unicode="+" horiz-adv-x="344" 
d="M259 247q3 0 4 -4t0.5 -9.5t-2 -10.5t-2.5 -7q-4 0 -17 0.5t-28.5 0.5t-31.5 -0.5t-26 -0.5q1 -8 2 -21.5t2 -28.5l2 -29.5t2 -23.5q0 -3 -4 -4t-9.5 -1t-10.5 1.5t-7 2.5v17v28t-0.5 30.5t-1.5 26.5q-12 -1 -29.5 -2l-33.5 -2t-28 -2.5t-14 -3.5q-5 19 2 30t23 10h17.5
h23.5t22.5 0.5t15.5 0.5q-1 11 -2.5 29t-3.5 35.5t-4.5 31t-3.5 15.5q19 5 26.5 3.5t6.5 -17.5q0 -6 1 -20t1.5 -29t1.5 -28.5t1 -19.5h19.5t29 0.5l30.5 1t26 0.5z" />
    <glyph glyph-name="endash" unicode="&#x2013;" horiz-adv-x="421" 
d="M371 209q3 0 4 -4t0.5 -9.5t-2 -10.5t-2.5 -7q-7 0 -34 0.5t-63.5 -0.5t-77.5 -2t-76 -2t-59 -3.5t-27 -4.5q-5 19 2 30t23 10q18 0 59.5 0.5t89 0.5t92.5 0.5t71 1.5z" />
    <glyph glyph-name="emdash" unicode="&#x2014;" horiz-adv-x="652" 
d="M602 199q3 0 4 -4t1 -9.5t-1.5 -10.5t-2.5 -7q-5 0 -31.5 0.5t-66.5 0t-89 -1l-99.5 -1t-98.5 -1.5t-86 -2.5t-62 -3t-26 -3.5q-5 19 2 30t23 10q12 0 51.5 0.5t93 0.5h114.5t116.5 0.5t98 0.5t59.5 1z" />
    <glyph glyph-name="at" unicode="@" horiz-adv-x="461" 
d="M296 134q-15 0 -26.5 15t-18.5 35.5t-10 41t-1 32.5l-32.5 -45t-41.5 -38q-20 -10 -38.5 -6t-20.5 25q-1 8 7.5 38.5t25 63.5t41 58t55.5 22q17 -2 25.5 -2t11.5 -13t3 -34t-1.5 -44.5t-2 -46.5t2.5 -40.5t11.5 -26t25.5 -3.5q10 4 21 25t18 50t8.5 63.5t-7.5 66
t-30.5 56t-59.5 35.5q-50 13 -86.5 -7.5t-60 -59.5t-33 -89t-4.5 -97q3 -24 10.5 -53t24.5 -52.5t46 -36.5t74 -6q20 3 60 13t98 42q5 -4 -1 -17.5t-20 -19.5l-53 -23.5t-55.5 -20.5t-58.5 -9t-62 12q-32 12 -53 39.5t-32.5 63.5t-13 78t6.5 83q6 31 17.5 61t28 55.5
t37.5 43.5t46 26q41 12 74 5t57 -20t37.5 -26.5t15.5 -14.5q9 -8 17 -28t12.5 -44t5 -48t-5.5 -40q-16 -44 -29 -70.5t-24.5 -41.5t-22 -20t-19.5 -6zM141 201q3 -1 5 -2.5t4 -2t5.5 1.5t10.5 7q35 38 51 72t11 62q-10 9 -21.5 3t-23 -21t-21.5 -34.5t-16.5 -38t-8.5 -32
t4 -15.5z" />
    <glyph glyph-name="equal" unicode="=" horiz-adv-x="344" 
d="M256 246q3 0 4 -4t0.5 -9.5t-2 -10.5t-2.5 -7h-23.5t-37.5 -1t-43.5 -2.5t-42.5 -3t-34 -3t-18 -2.5q-5 19 2 30t23 10q37 1 79.5 1t94.5 2zM66 148q-3 0 -4 4t-0.5 9t2 10.5t2.5 7.5q11 -2 43 -1t67 3q40 2 89 4q5 -19 -2.5 -29.5t-22.5 -9.5q-38 1 -80.5 1.5t-93.5 0.5
z" />
    <glyph glyph-name="registered" unicode="&#xae;" horiz-adv-x="464" 
d="M265 427q4 -3 22.5 -9t40 -21t41.5 -40.5t28 -67.5q5 -48 -10.5 -88t-43 -68t-63 -40.5t-71.5 -6.5q-41 8 -72.5 26t-59.5 52q-13 27 -15.5 63t7.5 72t34 67t66 49q21 10 42.5 13.5t53.5 -1.5zM106 345q-3 -5 -8.5 -18t-9.5 -32.5t-4 -44t8 -51.5q13 -27 30 -44
t33.5 -26.5t31 -13t22.5 -4.5q27 -5 50.5 0t42.5 16t33 26.5t22 32.5q14 26 16 59t-16 75q-4 9 -17.5 23t-34 27.5t-45.5 23t-52 9.5t-53.5 -13t-48.5 -45zM233 79q-13 0 -25 3q-45 8 -76.5 26.5t-57.5 52.5q-17 35 -18.5 76t12.5 80q10 26 32.5 55t67.5 49q16 7 30 11t33 4
q13 0 35 -5h2q3 -3 9 -4q11 -4 29 -12t36.5 -24t35 -40.5t23.5 -61.5q6 -43 -6.5 -82.5t-40.5 -68.5q-24 -29 -56 -44t-65 -15zM231 425q-17 0 -30.5 -3.5t-28.5 -10.5q-42 -18 -63.5 -46t-30.5 -53q-13 -35 -12 -74.5t17 -70.5q24 -32 54 -50t72 -25q5 -1 11.5 -2t12.5 -1
q31 0 61 14.5t53 40.5q26 29 37.5 65.5t6.5 77.5q-6 35 -21.5 58.5t-33.5 38.5t-35 22.5t-27 11.5q-8 3 -11 3q-15 4 -32 4zM233 104h-12.5t-12.5 1l-23 5.5t-32 13.5t-35 27.5t-31 46.5q-9 28 -8.5 53.5t5 45.5t10 33.5t8.5 17.5q21 31 48 45.5t59 14.5q27 0 53 -10
t47 -23.5t35 -28t18 -23.5q32 -77 0 -140q-7 -14 -18.5 -28t-28 -25.5t-37 -18.5t-45.5 -7zM209 397q-60 0 -98 -55q-3 -3 -8.5 -16t-9.5 -32t-4.5 -43t7.5 -50q13 -27 29.5 -43t32.5 -25t30 -12.5t21 -4.5q7 0 12.5 -1t11.5 -1q23 0 42 7t34 17.5t26 23.5t18 26
q16 29 15 60.5t-15 69.5q-4 9 -17.5 22.5t-33.5 26t-44 21.5t-49 9zM171 334q4 1 5 -1t1.5 -4.5t1.5 -5.5t4 -3q12 8 28 10t31.5 -1t27 -9t13.5 -14q4 -15 -1 -24.5t-14.5 -15.5t-21 -11.5t-19.5 -12.5q18 -8 30 -8.5t21.5 2t18.5 6.5t22 6q18 -5 21 -6.5t3 -6.5
q-17 -4 -38 -11t-41 -11.5t-38 -4t-30 11.5q0 -10 0.5 -14.5t0.5 -8v-10v-21.5q-5 1 -11 -0.5t-11 -3.5t-8 -1.5t-3 6.5q0 13 0.5 34t-0.5 43.5t-3.5 44t-8.5 35.5q7 5 9 6t10 4zM190 301q-2 -11 -2 -18.5t5 -30.5q10 2 24 7.5t25 12.5t15.5 15t-4.5 14q-15 11 -30.5 8
t-32.5 -8zM168 155q-4 0 -7 3t-3 9v4q0 13 0.5 34t0 42.5t-3 41.5t-8.5 32l-1 5l3 2q7 5 9 6t10 6h1q9 2 11.5 -4t2.5 -8v-1q10 5 20.5 7t18.5 2q20 0 41 -7t24 -21q7 -24 -5 -35.5t-27 -18.5q-5 -2 -9 -5.5t-9 -5.5q8 -2 14 -4t11 -2q8 0 14.5 3t13.5 5q9 4 28 9h1h2
q17 -5 22.5 -8t5.5 -11v-5l-5 -1q-13 -4 -35 -9q-20 -7 -39.5 -11.5t-38.5 -4.5q-9 0 -15.5 1t-13.5 5q1 -9 1 -13.5t-1 -20.5v-18l-8 2q-2 1 -6.5 0.5t-9.5 -2.5q-3 -1 -5.5 -2t-4.5 -1zM158 321q5 -14 7.5 -34t3 -41t0 -41t-0.5 -34v-5q1 0 3 0.5t4 0.5q7 4 17 4v5
q1 16 1 20.5t-1 13.5l-2 22l9 -8q10 -10 32 -10q18 0 37 4.5t38 10.5q20 7 31 8q-2 2 -6.5 2.5t-11.5 2.5q-8 -2 -13.5 -3.5t-11.5 -3.5q-8 -2 -15 -5t-17 -3q-15 0 -37 9l-7 3l6 6q11 11 26 17q16 9 24 17.5t3 25.5q-2 7 -18 14t-37 7q-8 0 -18 -2t-18 -9h-3h-2
q-5 0 -7 4.5t-2 7.5v3q-5 -3 -7 -4t-7 -5zM190 246l-1 5q-6 22 -6 31t1 20l2 3l8 3q9 2 17 4t17 2q14 0 28 -9q7 -5 8 -9t1 -7q-2 -8 -10 -15t-19.5 -12.5t-23 -9t-18.5 -4.5zM194 298q-1 -9 -1 -16t4 -24q18 5 37 14.5t21 17.5q0 2 -0.5 3t-4.5 3q-11 8 -25 7.5t-29 -5.5
h-2z" />
    <glyph glyph-name="copyright" unicode="&#xa9;" horiz-adv-x="378" 
d="M217 384q4 -2 19 -7.5t32.5 -17.5t34 -34t23.5 -57q5 -40 -7.5 -73.5t-35.5 -56.5t-53.5 -34t-60.5 -5q-34 6 -60 21t-49 44q-11 23 -13.5 53t6 60t29 56t55.5 41q18 8 35 11.5t45 -1.5zM83 315q-2 -4 -6.5 -15t-8 -27.5t-3.5 -37t7 -42.5q10 -23 24.5 -37t28.5 -21.5
t26 -10.5t18 -4q23 -4 43 0t36 13t27.5 22t18.5 27q11 23 12.5 50t-12.5 62q-5 12 -27.5 31.5t-54 30.5t-66.5 5t-63 -46zM189 93q-5 0 -10 0.5t-10 1.5q-37 7 -63.5 22t-49.5 44q-14 29 -14.5 64t11.5 67q8 21 26.5 45.5t55.5 41.5q14 5 26 8.5t27 3.5q16 0 29 -4h3
q2 -2 7 -3q9 -3 23.5 -10t30.5 -20t30 -34t20 -52q4 -36 -6 -68.5t-33 -57.5q-20 -24 -47 -36.5t-56 -12.5zM188 383q-14 0 -25 -3.5t-25 -9.5q-35 -14 -52 -38t-25 -44q-11 -29 -10 -62.5t13 -59.5q21 -26 46 -41.5t60 -20.5q5 -1 9.5 -2t9.5 -1q26 0 51.5 12.5t45.5 33.5
q21 25 31 55.5t6 64.5q-6 29 -19 48.5t-28 32t-29.5 19t-23.5 9.5q-5 3 -7 3q-8 2 -15 3t-13 1zM190 114h-10t-11 1t-18.5 4.5t-27 11.5t-29.5 22.5t-27 38.5q-7 24 -6.5 45t4.5 38t8.5 28t6.5 14q35 51 89 51q23 0 45 -8.5t39.5 -19.5t29.5 -23.5t15 -19.5q25 -65 0 -117
q-12 -23 -39.5 -44.5t-68.5 -21.5zM169 359q-48 0 -82 -46q-2 -3 -6.5 -14t-7.5 -27t-3 -36t6 -41q10 -23 24 -36.5t27.5 -21t25 -10.5t17.5 -4q5 0 10 -0.5t10 -0.5q39 0 64.5 20t36.5 42q24 48 -1 109q-3 7 -14.5 18.5t-28 22t-37 18t-41.5 7.5zM216 293q-35 -7 -49.5 -28
t-19.5 -45q-1 -10 1.5 -13t13.5 -9q32 2 50 15.5t28 35.5q5 -2 8 -4t7 -4q-5 -19 -22 -35.5t-38 -25.5t-41.5 -8t-32.5 19q-5 22 0 40.5t15 33t21 25t18 16.5q6 1 13.5 3.5t14.5 2t11 -4.5t2 -14z" />
    <glyph glyph-name="trademark" unicode="&#x2122;" horiz-adv-x="222" 
d="M71 571q10 17 13.5 25t9.5 19q4 5 15 0q2 -8 7 -22.5t16 -30.5q8 1 12 5.5t6.5 10.5t4 12.5t4.5 12.5q3 8 5.5 9t10.5 -6q3 -17 10.5 -35.5t21.5 -23.5q2 -9 0.5 -11.5t-6.5 -6.5q-11 -2 -16 2t-8.5 9.5t-6.5 11.5t-8 10q-17 -32 -31.5 -27.5t-27.5 39.5q-4 7 -7 2
t-5.5 -15.5t-5 -23t-3.5 -21.5q-8 -4 -9 -3.5t-11 -0.5q-3 11 -3.5 28.5t-2.5 32.5t-9.5 22t-24.5 -2q4 -15 5 -29t3 -24q6 -29 3.5 -40.5t-10.5 -11.5q-5 32 -9 54t-12 44q-14 -1 -24.5 -6t-28.5 -3q-4 10 0 20q13 0 25 3.5t24 8l25 9t27 6.5q3 -6 6 -7.5t5.5 -5t4.5 -12
t5 -28.5v0z" />
    <glyph glyph-name="degree" unicode="&#xb0;" horiz-adv-x="127" 
d="M81 622q8 0 15.5 -6t7.5 -23l-2 -22t-5 -20.5t-12.5 -16t-24.5 -7.5q-2 0 -6.5 0.5t-9.5 2.5q-7 4 -10.5 12t-4 18t0.5 19t3 14q4 12 17.5 21.5t30.5 7.5zM57 545q9 -5 16 4t10 22t1.5 24.5t-10.5 12.5q-10 2 -17.5 -5.5t-10.5 -18.5t-1 -22.5t12 -16.5z" />
    <glyph glyph-name="bullet" unicode="&#x2022;" horiz-adv-x="302" 
d="M115 265q9 -1 21.5 -10.5t12.5 -23.5q0 -18 -9 -33t-35 -15q-2 1 -7 1t-11 3q-16 8 -20 20t1 24q4 14 15.5 25t31.5 9z" />
    <glyph glyph-name="tilde" unicode="&#x2dc;" horiz-adv-x="457" 
d="M55 579q10 17 24 28q12 9 31 12t45 -11q27 -13 54.5 -17t51.5 -3t41 5t22 6q6 3 12.5 3.5t10 -1.5t2 -6t-10.5 -11q-14 -9 -30.5 -17.5t-35 -13t-37.5 -4t-38 9.5q-37 16 -57 22t-31 5t-17 -6.5l-13 -11.5z" />
    <glyph glyph-name="asciitilde" unicode="~" horiz-adv-x="333" 
d="M59 182q8 14 19 22q10 7 24.5 9.5t35.5 -8.5t43 -14t41 -2t32.5 4t17.5 5q5 2 10 2.5t8 -1t1.5 -5t-8.5 -8.5q-11 -7 -24 -13.5t-27.5 -10.5t-30 -3.5t-30.5 7.5q-29 13 -45 17.5t-24.5 4t-13 -5t-10.5 -9.5z" />
    <glyph glyph-name="underscore" unicode="_" horiz-adv-x="398" 
d="M352 -69q6 0 4 -9.5t-4 -13.5h-32.5t-59.5 -1t-72 -2t-71 -2t-56 -2t-27 -2q-5 14 2 22t23 7q18 0 56.5 0.5t82.5 1l86 1t68 0.5z" />
    <glyph glyph-name="bar" unicode="|" horiz-adv-x="241" 
d="M133 -199q0 -3 -5.5 -4t-12.5 -0.5t-14 2t-10 2.5q1 7 1.5 44.5t1.5 93.5t1.5 125l1 140t0.5 138.5t-0.5 121t-1.5 87t-3 35.5q22 5 35 -2t12 -24v-44t-0.5 -83.5t-1.5 -110.5t-1.5 -125.5l-1 -127.5t-1 -116.5t-0.5 -93.5v-58z" />
    <glyph glyph-name="minus" unicode="&#x2212;" horiz-adv-x="299" 
d="M245 258q6 0 4 -9.5t-4 -13.5q-11 1 -41.5 0t-63.5 -2.5t-60.5 -3t-33.5 -2.5q-5 14 2 22t23 7q37 1 79.5 1t94.5 1z" />
    <glyph glyph-name="multiply" unicode="&#xd7;" horiz-adv-x="361" 
d="M266 350q3 3 6.5 1.5t6.5 -5t5.5 -8t3.5 -6.5q-9 -10 -33 -39l-49.5 -61.5l-46 -60t-24.5 -33.5q-17 5 -19 18.5t12 27.5l63 75.5zM94 311q-3 3 0 7t8 8.5t10 8t8 4.5q4 -5 14.5 -14.5t25 -21.5l31 -26t33.5 -27l87 -69q-11 -21 -26.5 -25t-29.5 10l-74 67z" />
    <glyph glyph-name="divide" unicode="&#xf7;" horiz-adv-x="283" 
d="M245 223q4 0 5 -3t0.5 -7.5t-2.5 -9t-3 -6.5q-12 1 -45.5 0t-70.5 -3t-68 -4t-37 -3q-5 16 2.5 25t24.5 9h89.5t104.5 2zM145 298q4 -2 10.5 -6t6.5 -12q0 -10 -4 -17.5t-18 -7.5q-2 1 -4 0.5t-6 1.5q-8 5 -10 11t0 12q3 7 9 13t16 5zM145 164q4 0 10.5 -5t6.5 -12
q0 -9 -4 -17t-18 -8q-2 0 -4 0.5t-6 2.5q-8 4 -10 10t0 12q3 7 9 13t16 4z" />
    <glyph glyph-name="less" unicode="&#x3c;" horiz-adv-x="268" 
d="M193 367q2 2 5 0.5t5.5 -4.5t4.5 -6.5t2 -5.5q-8 -7 -28.5 -29l-43 -46.5l-40.5 -45.5t-21 -26q-14 6 -15 16.5t11 21.5l55.5 57.5zM63 217q-2 2 0 5.5t6.5 6.5t9 5.5t7.5 3.5q17 -23 40 -46t43 -41l48 -41q-10 -17 -22.5 -19t-22.5 10q-26 26 -49.5 52.5t-59.5 63.5z
" />
    <glyph glyph-name="greater" unicode="&#x3e;" horiz-adv-x="284" 
d="M87 75q-2 -2 -5 -0.5t-5 4.5t-4 7t-2 6l30 27.5l46 43.5l43.5 42.5t22.5 24.5q14 -7 14.5 -17.5t-12.5 -20.5l-58.5 -54zM226 216q2 -2 -0.5 -5t-7 -6t-9 -5.5t-7.5 -2.5q-16 24 -37 48l-40 44q-22 23 -45 44q11 16 23.5 17.5t21.5 -11.5q25 -28 46.5 -56t54.5 -67z" />
    <glyph glyph-name="asciicircum" unicode="^" horiz-adv-x="641" 
d="M323 -29q11 33 5 68q-5 30 -28.5 67.5t-80.5 75.5q-6 4 -19 14t-28 25t-29.5 34t-23.5 40.5t-10 44t11 44.5q19 36 49.5 40t61 -9t56.5 -36.5t36 -42.5q19 58 44 94.5t50.5 54t51 17t46.5 -16.5q16 -12 18 -38t-6 -61t-24 -76t-35 -82t-39 -79.5l-37 -68.5l-28 -48.5
t-12 -19.5zM194 390q-20 0 -32.5 -11t-14.5 -22q-10 -24 -1 -55.5t34 -54.5q15 -15 29.5 -26.5t28.5 -21.5q35 -27 67.5 -60.5t46.5 -70.5q42 69 73.5 132t50 114t22.5 86t-10 47q-8 6 -17.5 11t-17.5 5q-29 0 -57 -38t-51 -110l-19 -51l-16 48q-1 1 -6.5 11.5t-18 23.5
t-33 24.5t-51.5 15.5q-3 3 -7 3z" />
    <glyph glyph-name="fraction" unicode="&#x2044;" horiz-adv-x="134" 
d="M-110 172q-8 -2 -15 4t-13 16q2 9 17.5 40.5l40 77.5l55.5 102.5l63 115l63.5 114.5l56 101.5l40.5 76t18 38.5q4 5 12 7t16.5 1t16 -4t11.5 -8q-32 -49 -72 -116.5l-81 -141l-80.5 -146.5l-71.5 -132.5l-52.5 -99t-24.5 -46.5z" />
    <glyph glyph-name="bracketleft" unicode="[" horiz-adv-x="231" 
d="M109 -29q14 2 35.5 3t37.5 1l-7 -35q-13 -5 -35.5 -5t-39.5 2q-5 0 -11.5 0.5t-9.5 2.5q1 7 1 44v93.5t-0.5 126t-1.5 142l-2 141t-2 123t-2.5 88.5t-3.5 36q13 6 24 1l73 2l7 -19q2 -7 2.5 -13t-4.5 -4q-8 2 -29 1.5t-35 -1.5q0 -16 0.5 -67.5t0.5 -121t0.5 -150
t0.5 -156.5t0.5 -138.5t0.5 -96.5z" />
    <glyph glyph-name="bracketright" unicode="]" horiz-adv-x="248" 
d="M136 691q-14 -2 -35.5 -3t-37.5 -1l7 35q13 5 35.5 5t39.5 -2q5 0 11.5 -0.5t9.5 -2.5q-1 -7 -1 -43.5t-0.5 -92t-0.5 -124.5t0.5 -140l1 -138.5t1.5 -121t2 -87t3 -35.5q-13 -6 -24 -1l-73 -2l-7 19q-2 7 -2.5 12.5t4.5 4.5q8 -2 29 -1.5t35 1.5v66.5t0.5 119t0.5 147.5
t0.5 153t0.5 136v96z" />
    <glyph glyph-name="quoteleft" unicode="&#x2018;" horiz-adv-x="134" 
d="M70 698q9 -2 11 -9.5t2 -18.5q-2 0 -2.5 -17t-1 -40.5t-1.5 -49.5t-5 -45q-6 -4 -19.5 -7t-18.5 2l7.5 43.5t5.5 41t1 42.5t-5 49q8 7 11.5 8t14.5 1z" />
    <glyph glyph-name="quoteright" unicode="&#x2019;" horiz-adv-x="150" 
d="M85 696q9 -2 11 -9.5t2 -18.5q-2 0 -2.5 -17t-1 -40.5t-1.5 -49.5t-5 -45q-6 -4 -19.5 -7t-18.5 2l7.5 43.5t5.5 41t1 42.5t-5 49q8 7 11.5 8t14.5 1z" />
    <glyph glyph-name="exclam" unicode="!" horiz-adv-x="252" 
d="M162 48q4 -8 4.5 -12.5t-1.5 -9t-6 -9.5t-8 -13q-21 -6 -32.5 -2.5t-17.5 13.5q-2 15 3.5 23.5t14.5 12t20.5 2.5t22.5 -5zM48 703q0 5 5 6.5t12.5 -1t14.5 -7.5t12 -12q1 -27 4.5 -75.5t8.5 -106.5l10.5 -119t9.5 -112.5t6 -87t0 -41.5q-5 2 -9.5 1.5t-9.5 -0.5t-10 3
t-10 13q-1 94 -4 161.5t-8.5 126t-13.5 117z" />
    <glyph glyph-name="A" unicode="A" horiz-adv-x="416" 
d="M85 190q-14 0 -31.5 -1.5t-33.5 -1.5t-28.5 2.5t-15.5 10.5q-6 5 0 11.5l11 11.5q19 2 33 3t26 2.5l23 3t23 3.5l28 107l25 101l23.5 101l24.5 107q9 13 15 13.5t20 -0.5q6 -32 9 -54t5.5 -44.5t6 -50t9.5 -69.5q4 -43 11 -84.5t12 -85.5q26 4 50 8.5l42.5 8t30 5.5
t11.5 1q3 -9 -9.5 -17.5t-32.5 -17t-43 -16l-41 -13.5q2 -19 7 -47.5l10.5 -60.5l11.5 -64.5l10.5 -59t6.5 -44t0 -19.5q-17 -2 -24.5 3.5t-18.5 9.5q-8 66 -20 134.5t-19 136.5q-23 -5 -58.5 -13.5t-73.5 -14.5q-6 -22 -11 -49l-10 -51.5t-8.5 -44t-6.5 -25.5
q-5 -5 -17.5 -6.5t-20.5 6.5q0 6 4.5 27.5t10.5 47.5t12.5 50.5zM133 239l33 6.5t33.5 7.5t27 6.5t13.5 3.5q-2 22 -3.5 36.5l-3 30.5l-3.5 37.5t-6 58.5q-8 63 -11.5 94t-6.5 20l-24.5 -93.5l-19 -73t-15.5 -65.5t-14 -69z" />
    <glyph glyph-name="a" unicode="a" horiz-adv-x="291" 
d="M213 294q-1 -6 -4.5 -25t-7.5 -44.5t-7 -53.5t-3.5 -53t3 -42.5t11.5 -21.5q23 -11 47 7.5t56 56.5q3 0 0.5 -8t-8 -17.5l-11 -19t-8.5 -12.5q-8 -10 -23 -22.5t-32 -20t-32.5 -6.5t-25.5 18q-5 12 -6 29.5t0 35.5t3 33l3 22q-21 -39 -48 -74t-53 -55t-48 -21.5t-34 25.5
q-7 26 0 58.5t21 58.5q21 36 44 66t49 51t54.5 30.5t59.5 4.5zM25 40q10 -2 32 15t46 47.5t43.5 71t25.5 85.5h-11.5t-17.5 -6q-38 -25 -65 -58.5t-42 -65t-18 -56.5t7 -33z" />
    <glyph glyph-name="glyph111" horiz-adv-x="0" 
 />
    <glyph glyph-name="grave" unicode="`" horiz-adv-x="833" 
 />
    <glyph glyph-name="braceleft" unicode="{" horiz-adv-x="234" 
d="M157 -62q12 -10 22 -16t18 -10q9 -4 16 -6l-11 -10q-4 0 -15 1.5t-26.5 9.5t-34 24.5t-36.5 46.5q-13 20 -14 42.5t2.5 47t8 50.5t1 53.5t-19 56.5t-50.5 58q38 28 53.5 52.5t18 48t-3.5 46t-11.5 45.5t-6 47.5t13.5 52.5q15 26 35 49t38 40q21 19 44 35q13 -2 22 -4
q8 -2 13 -4t0 -5q-50 -32 -77.5 -60.5t-39 -55t-11 -51.5t5.5 -48.5t10.5 -46.5t4 -46t-13.5 -46.5t-42 -48.5q33 -38 42.5 -71t8 -63.5t-8.5 -57.5t-8.5 -53.5t8.5 -51.5t44 -51z" />
    <glyph glyph-name="braceright" unicode="}" horiz-adv-x="213" 
d="M28 653q-13 9 -23 14.5t-18 8.5q-9 4 -16 6l10 10q4 0 15 -1t27 -8t35 -22.5t39 -44.5q14 -19 16 -42t-0.5 -47.5t-5.5 -51t1.5 -54t21 -55.5t53.5 -55q-36 -29 -50.5 -54.5t-16 -49t5.5 -46l13.5 -45t8 -47.5t-10.5 -53q-14 -27 -33 -51t-36 -41q-20 -20 -42 -37
q-13 1 -22 3q-8 2 -13.5 3.5t-0.5 5.5q49 34 74.5 64t36 57t9 51.5t-7.5 48t-12.5 46t-6.5 45.5t11 47.5t40 50.5q-35 36 -46 69t-11 63t6 58t6.5 54t-11 51t-46.5 49z" />
    <glyph glyph-name="cent" unicode="&#xa2;" horiz-adv-x="296" 
d="M173 423q1 -5 -8 -10t-22.5 -14.5t-29.5 -25t-29 -41.5q-14 -29 -19.5 -49.5t2.5 -48.5q3 -6 7.5 -10.5t13.5 -5.5q37 6 60.5 23t49.5 38q19 17 30.5 30l19.5 22t13.5 12.5t11.5 2.5q-3 -7 -18.5 -31t-40.5 -51.5t-58 -51t-72 -29.5q-15 2 -25 4t-18 19q-11 21 -8 50.5
t13 58.5t25 54t30 37q20 14 37.5 17t34.5 0zM142 89q0 -3 -4.5 -3.5t-10.5 0t-11.5 1.5t-8.5 2q0 8 0.5 41t0 77t-1 93.5t-1.5 92t-3 71t-4 31.5q18 5 29 -1t10 -20q0 -11 0.5 -38t1 -63.5t1 -77.5l1 -80.5t1 -72.5t0.5 -53z" />
    </font>
</defs>
</svg>
