<?xml version="1.0" standalone="no"?>
<!DOCTYPE svg PUBLIC "-//W3C//DTD SVG 1.1//EN" "http://www.w3.org/Graphics/SVG/1.1/DTD/svg11.dtd" >
<svg xmlns="http://www.w3.org/2000/svg">
<metadata>Generated by IcoMoon</metadata>
<defs>
<font id="eGlyphs" horiz-adv-x="1024">
<font-face units-per-em="1024" ascent="960" descent="-64" />
<missing-glyph horiz-adv-x="1024" />
<glyph unicode="&#x20;" horiz-adv-x="512" d="" />
<glyph unicode="&#xe900;" glyph-name="expand" d="M1024 960h-416l160-160-192-192 96-96 192 192 160-160zM1024-64v416l-160-160-192 192-96-96 192-192-160-160zM0-64h416l-160 160 192 192-96 96-192-192-160 160zM0 960v-416l160 160 192-192 96 96-192 192 160 160z" />
<glyph unicode="&#xe901;" glyph-name="shrink" d="M576 512h416l-160 160 192 192-96 96-192-192-160 160zM576 384v-416l160 160 192-192 96 96-192 192 160 160zM448 384.004h-416l160-160-192-192 96-96 192 192 160-160zM448 512v416l-160-160-192 192-96-96 192-192-160-160z" />
<glyph unicode="&#xe902;" glyph-name="compact-menu" d="M64 768h896v-192h-896zM64 512h896v-192h-896zM64 256h896v-192h-896z" />
<glyph unicode="&#xe903;" glyph-name="warning" d="M512 867.226l429.102-855.226h-858.206l429.104 855.226zM512 960c-22.070 0-44.14-14.882-60.884-44.648l-437.074-871.112c-33.486-59.532-5-108.24 63.304-108.24h869.308c68.3 0 96.792 48.708 63.3 108.24h0.002l-437.074 871.112c-16.742 29.766-38.812 44.648-60.882 44.648v0zM576 128c0-35.346-28.654-64-64-64s-64 28.654-64 64c0 35.346 28.654 64 64 64s64-28.654 64-64zM512 256c-35.346 0-64 28.654-64 64v192c0 35.346 28.654 64 64 64s64-28.654 64-64v-192c0-35.346-28.654-64-64-64z" />
<glyph unicode="&#xe904;" glyph-name="notification" d="M512 864c-111.118 0-215.584-43.272-294.156-121.844s-121.844-183.038-121.844-294.156c0-111.118 43.272-215.584 121.844-294.156s183.038-121.844 294.156-121.844c111.118 0 215.584 43.272 294.156 121.844s121.844 183.038 121.844 294.156c0 111.118-43.272 215.584-121.844 294.156s-183.038 121.844-294.156 121.844zM512 960v0c282.77 0 512-229.23 512-512s-229.23-512-512-512c-282.77 0-512 229.23-512 512s229.23 512 512 512zM448 256h128v-128h-128zM448 768h128v-384h-128z" />
<glyph unicode="&#xe905;" glyph-name="question" d="M448 256h128v-128h-128zM704 704c35.346 0 64-28.654 64-64v-192l-192-128h-128v64l192 128v64h-320v128h384zM512 864c-111.118 0-215.584-43.272-294.156-121.844s-121.844-183.038-121.844-294.156c0-111.118 43.272-215.584 121.844-294.156s183.038-121.844 294.156-121.844c111.118 0 215.584 43.272 294.156 121.844s121.844 183.038 121.844 294.156c0 111.118-43.272 215.584-121.844 294.156s-183.038 121.844-294.156 121.844zM512 960v0c282.77 0 512-229.23 512-512s-229.23-512-512-512c-282.77 0-512 229.23-512 512s229.23 512 512 512z" />
<glyph unicode="&#xe906;" glyph-name="info" d="M448 656c0 26.4 21.6 48 48 48h32c26.4 0 48-21.6 48-48v-32c0-26.4-21.6-48-48-48h-32c-26.4 0-48 21.6-48 48v32zM640 192h-256v64h64v192h-64v64h192v-256h64zM512 960c-282.77 0-512-229.23-512-512s229.23-512 512-512 512 229.23 512 512-229.23 512-512 512zM512 32c-229.75 0-416 186.25-416 416s186.25 416 416 416 416-186.25 416-416-186.25-416-416-416z" />
<glyph unicode="&#xe907;" glyph-name="error" d="M512 960c-282.77 0-512-229.23-512-512s229.23-512 512-512 512 229.23 512 512-229.23 512-512 512zM512 32c-229.75 0-416 186.25-416 416s186.25 416 416 416 416-186.25 416-416-186.25-416-416-416zM672 704l-160-160-160 160-96-96 160-160-160-160 96-96 160 160 160-160 96 96-160 160 160 160z" />
<glyph unicode="&#xe908;" glyph-name="heavy-play" d="M192 832l640-384-640-384z" />
<glyph unicode="&#xe909;" glyph-name="heavy-pause" d="M128 832h320v-768h-320zM576 832h320v-768h-320z" />
<glyph unicode="&#xe90a;" glyph-name="heavy-stop" d="M128 832h768v-768h-768z" />
<glyph unicode="&#xe90b;" glyph-name="heavy-rewind" d="M576 800v-320l320 320v-704l-320 320v-320l-352 352z" />
<glyph unicode="&#xe90c;" glyph-name="heavy-forward" d="M512 96v320l-320-320v704l320-320v320l352-352z" />
<glyph unicode="&#xe90d;" glyph-name="first" d="M128 64v768h128v-352l320 320v-320l320 320v-704l-320 320v-320l-320 320v-352z" />
<glyph unicode="&#xe90e;" glyph-name="last" d="M896 832v-768h-128v352l-320-320v320l-320-320v704l320-320v320l320-320v352z" />
<glyph unicode="&#xe90f;" glyph-name="heavy-previous" d="M256 64v768h128v-352l320 320v-704l-320 320v-352z" />
<glyph unicode="&#xe910;" glyph-name="heavy-next" d="M768 832v-768h-128v352l-320-320v704l320-320v352z" />
<glyph unicode="&#xe911;" glyph-name="eject" d="M0 192h1024v-128h-1024zM512 832l512-512h-1024z" />
<glyph unicode="&#xe912;" glyph-name="volume-max" horiz-adv-x="1088" d="M890.040 37.96c-12.286 0-24.566 4.686-33.942 14.056-18.744 18.746-18.744 49.136 0 67.882 87.638 87.642 135.904 204.16 135.904 328.1 0 123.938-48.266 240.458-135.904 328.098-18.744 18.746-18.744 49.138 0 67.882s49.138 18.744 67.882 0c105.77-105.772 164.022-246.4 164.022-395.98s-58.252-290.208-164.022-395.98c-9.372-9.372-21.656-14.058-33.94-14.058zM719.53 128.47c-12.286 0-24.566 4.686-33.942 14.056-18.744 18.744-18.744 49.136 0 67.882 131.006 131.006 131.006 344.17 0 475.176-18.744 18.746-18.744 49.138 0 67.882 18.744 18.742 49.138 18.744 67.882 0 81.594-81.59 126.53-190.074 126.53-305.466 0-115.39-44.936-223.876-126.53-305.47-9.372-9.374-21.656-14.060-33.94-14.060v0zM549.020 218.98c-12.286 0-24.568 4.686-33.942 14.058-18.746 18.746-18.746 49.134 0 67.88 81.1 81.1 81.1 213.058 0 294.156-18.746 18.746-18.746 49.138 0 67.882s49.136 18.744 67.882 0c118.53-118.53 118.53-311.392 0-429.922-9.372-9.368-21.656-14.054-33.94-14.054zM416.006 0c-8.328 0-16.512 3.25-22.634 9.374l-246.626 246.626h-114.746c-17.672 0-32 14.326-32 32v320c0 17.672 14.328 32 32 32h114.746l246.626 246.628c9.154 9.154 22.916 11.89 34.874 6.936 11.958-4.952 19.754-16.622 19.754-29.564v-832c0-12.944-7.796-24.612-19.754-29.564-3.958-1.64-8.118-2.436-12.24-2.436z" />
<glyph unicode="&#xe913;" glyph-name="volume-mid" d="M719.53 128.47c-12.286 0-24.566 4.686-33.942 14.056-18.744 18.744-18.744 49.136 0 67.882 131.006 131.006 131.006 344.17 0 475.176-18.744 18.746-18.744 49.138 0 67.882 18.744 18.742 49.138 18.744 67.882 0 81.594-81.59 126.53-190.074 126.53-305.466 0-115.39-44.936-223.876-126.53-305.47-9.372-9.374-21.656-14.060-33.94-14.060v0zM549.020 218.98c-12.286 0-24.566 4.686-33.942 14.058-18.746 18.746-18.746 49.134 0 67.88 81.1 81.1 81.1 213.058 0 294.156-18.746 18.746-18.746 49.138 0 67.882s49.136 18.744 67.882 0c118.53-118.53 118.53-311.392 0-429.922-9.372-9.368-21.656-14.054-33.94-14.054zM416.006 0c-8.328 0-16.512 3.25-22.634 9.374l-246.626 246.626h-114.746c-17.672 0-32 14.326-32 32v320c0 17.672 14.328 32 32 32h114.746l246.626 246.628c9.154 9.154 22.916 11.89 34.874 6.936 11.958-4.952 19.754-16.622 19.754-29.564v-832c0-12.944-7.796-24.612-19.754-29.564-3.958-1.64-8.118-2.436-12.24-2.436z" />
<glyph unicode="&#xe914;" glyph-name="volume-low" d="M549.020 218.98c-12.286 0-24.566 4.686-33.942 14.058-18.746 18.746-18.746 49.134 0 67.88 81.1 81.1 81.1 213.058 0 294.156-18.746 18.746-18.746 49.138 0 67.882s49.136 18.744 67.882 0c118.53-118.53 118.53-311.392 0-429.922-9.372-9.368-21.656-14.054-33.94-14.054zM416.006 0c-8.328 0-16.512 3.25-22.634 9.374l-246.626 246.626h-114.746c-17.672 0-32 14.326-32 32v320c0 17.672 14.328 32 32 32h114.746l246.626 246.628c9.154 9.154 22.916 11.89 34.874 6.936 11.958-4.952 19.754-16.622 19.754-29.564v-832c0-12.944-7.796-24.612-19.754-29.564-3.958-1.64-8.118-2.436-12.24-2.436z" />
<glyph unicode="&#xe915;" glyph-name="volume-min" d="M416.006 0c-8.328 0-16.512 3.25-22.634 9.374l-246.626 246.626h-114.746c-17.672 0-32 14.326-32 32v320c0 17.672 14.328 32 32 32h114.746l246.626 246.628c9.154 9.154 22.916 11.89 34.874 6.936 11.958-4.952 19.754-16.622 19.754-29.564v-832c0-12.944-7.796-24.612-19.754-29.564-3.958-1.64-8.118-2.436-12.24-2.436z" />
<glyph unicode="&#xe916;" glyph-name="volume-mute" d="M960 340.852v-84.852h-84.852l-107.148 107.148-107.148-107.148h-84.852v84.852l107.148 107.148-107.148 107.148v84.852h84.852l107.148-107.148 107.148 107.148h84.852v-84.852l-107.148-107.148 107.148-107.148zM416.006 0c-8.328 0-16.512 3.25-22.634 9.374l-246.626 246.626h-114.746c-17.672 0-32 14.326-32 32v320c0 17.672 14.328 32 32 32h114.746l246.626 246.628c9.154 9.154 22.916 11.89 34.874 6.936 11.958-4.952 19.754-16.622 19.754-29.564v-832c0-12.944-7.796-24.612-19.754-29.564-3.958-1.64-8.118-2.436-12.24-2.436z" />
<glyph unicode="&#xe917;" glyph-name="volume-up" d="M1024 384h-192v-192h-128v192h-192v128h192v192h128v-192h192v-128zM416.006 0c-8.328 0-16.512 3.25-22.634 9.374l-246.626 246.626h-114.746c-17.672 0-32 14.326-32 32v320c0 17.672 14.328 32 32 32h114.746l246.626 246.628c9.154 9.154 22.916 11.89 34.874 6.936 11.958-4.952 19.754-16.622 19.754-29.564v-832c0-12.944-7.796-24.612-19.754-29.564-3.958-1.64-8.118-2.436-12.24-2.436z" />
<glyph unicode="&#xe918;" glyph-name="volume-down" d="M512 512h512v-128h-512v128zM416.006 0c-8.328 0-16.512 3.25-22.634 9.374l-246.626 246.626h-114.746c-17.672 0-32 14.326-32 32v320c0 17.672 14.328 32 32 32h114.746l246.626 246.628c9.154 9.154 22.916 11.89 34.874 6.936 11.958-4.952 19.754-16.622 19.754-29.564v-832c0-12.944-7.796-24.612-19.754-29.564-3.958-1.64-8.118-2.436-12.24-2.436z" />
<glyph unicode="&#xe919;" glyph-name="repeat" d="M128 640h640v-192l256 256-256 256v-192h-768v-384h128zM896 256h-640v192l-256-256 256-256v192h768v384h-128z" />
<glyph unicode="&#xe91a;" glyph-name="shuffle" d="M768 256h-101.49l-160 160 160 160h101.49v-160l224 224-224 224v-160h-128c-16.974 0-33.252-6.744-45.254-18.746l-178.746-178.744-178.746 178.746c-12 12-28.28 18.744-45.254 18.744h-192v-128h165.49l160-160-160-160h-165.49v-128h192c16.974 0 33.252 6.742 45.254 18.746l178.746 178.744 178.746-178.744c12.002-12.004 28.28-18.746 45.254-18.746h128v-160l224 224-224 224v-160z" />
<glyph unicode="&#xe91b;" glyph-name="cc-on" d="M-0.415 768.26v-640.519h1024.83v640.519h-1024.83zM352.011 342.225c19.951 0 38.985 2.224 57.706 6.669 18.716 4.443 38.231 9.787 56.165 16.044v-82.448c-35.869-13.331-79.927-19.994-127.442-19.994-68.092 0-120.141 15.798-156.443 47.395-36.309 31.596-54.385 77.26-54.385 136.997 0 37.357 8.831 70.186 26.42 98.492 17.586 28.303 42.91 50.069 75.922 65.292 33.015 15.218 71.851 22.833 116.492 22.833 48.748 0 95.35-8.481 139.784-25.424l-37.334-76.77c-16.663 6.254-33.322 11.516-49.986 15.801-16.661 4.278-34.557 6.418-53.685 6.418-29.005 0-51.636-9.5-67.885-28.508-16.251-19.008-24.378-45.216-24.378-78.625 0.003-69.447 33.018-104.171 99.050-104.171zM762.085 342.225c19.953 0 38.913 2.224 57.634 6.669 18.718 4.443 38.162 9.787 56.096 16.044v-82.448c-35.869-13.331-79.855-19.994-127.371-19.994-68.092 0-120.105 15.798-156.407 47.395-36.309 31.596-54.367 77.26-54.367 136.997 0 37.357 8.839 70.186 26.427 98.492 17.583 28.303 42.915 50.069 75.929 65.292 33.015 15.218 71.851 22.833 116.492 22.833 48.748 0 95.353-8.481 139.787-25.424l-37.332-76.77c-16.666 6.254-33.325 11.516-49.991 15.801-16.661 4.278-34.555 6.418-53.683 6.418-29.005 0-51.636-9.5-67.882-28.508-16.254-19.008-24.381-45.216-24.381-78.625 0-69.447 33.018-104.171 99.047-104.171z" />
<glyph unicode="&#xe91c;" glyph-name="cc-off" d="M345.359 553.439c-28.982 0-51.594-9.492-67.83-28.485-16.238-18.993-24.358-45.179-24.358-78.561 0-69.389 32.991-104.084 98.967-104.084 19.935 0 39.255 2.222 57.964 6.664 18.701 4.439 37.509 9.779 56.422 16.031v-82.381c-37.617-13.32-80.164-19.978-127.642-19.978-68.037 0-120.195 15.785-156.467 47.357-36.28 31.572-54.415 77.199-54.415 136.888 0 37.327 8.788 70.129 26.36 98.412 17.572 28.28 42.854 50.028 75.843 65.239 32.988 15.206 71.785 22.815 116.388 22.815 48.709 0 95.268-8.474 139.666-25.403l-37.307-76.708c-16.65 6.249-33.295 11.507-49.948 15.788-16.648 4.273-34.529 6.408-53.642 6.408zM755.103 553.439c-28.982 0-51.594-9.492-67.827-28.485-16.241-18.993-24.361-45.179-24.361-78.561 0-69.389 32.991-104.084 98.967-104.084 19.937 0 39.258 2.222 57.964 6.664 18.703 4.439 37.509 9.779 56.425 16.031v-82.381c-37.617-13.32-80.164-19.978-127.642-19.978-68.037 0-120.195 15.785-156.467 47.357-36.28 31.57-54.418 77.197-54.418 136.886 0 37.327 8.788 70.129 26.363 98.412 17.569 28.28 42.854 50.028 75.843 65.239 32.988 15.206 71.782 22.815 116.388 22.815 48.709 0 95.268-8.474 139.666-25.403l-37.304-76.708c-16.653 6.249-33.298 11.507-49.951 15.788-16.65 4.275-34.532 6.41-53.645 6.41z" />
<glyph unicode="&#xe91d;" glyph-name="plus" d="M992 576h-352v352c0 17.672-14.328 32-32 32h-192c-17.672 0-32-14.328-32-32v-352h-352c-17.672 0-32-14.328-32-32v-192c0-17.672 14.328-32 32-32h352v-352c0-17.672 14.328-32 32-32h192c17.672 0 32 14.328 32 32v352h352c17.672 0 32 14.328 32 32v192c0 17.672-14.328 32-32 32z" />
<glyph unicode="&#xe91e;" glyph-name="minus" d="M0 544v-192c0-17.672 14.328-32 32-32h960c17.672 0 32 14.328 32 32v192c0 17.672-14.328 32-32 32h-960c-17.672 0-32-14.328-32-32z" />
<glyph unicode="&#xe91f;" glyph-name="xmark" d="M1014.662 137.34c-0.004 0.004-0.008 0.008-0.012 0.010l-310.644 310.65 310.644 310.65c0.004 0.004 0.008 0.006 0.012 0.010 3.344 3.346 5.762 7.254 7.312 11.416 4.246 11.376 1.824 24.682-7.324 33.83l-146.746 146.746c-9.148 9.146-22.45 11.566-33.828 7.32-4.16-1.55-8.070-3.968-11.418-7.31 0-0.004-0.004-0.006-0.008-0.010l-310.648-310.652-310.648 310.65c-0.004 0.004-0.006 0.006-0.010 0.010-3.346 3.342-7.254 5.76-11.414 7.31-11.38 4.248-24.682 1.826-33.83-7.32l-146.748-146.748c-9.148-9.148-11.568-22.452-7.322-33.828 1.552-4.16 3.97-8.072 7.312-11.416 0.004-0.002 0.006-0.006 0.010-0.010l310.65-310.648-310.65-310.652c-0.002-0.004-0.006-0.006-0.008-0.010-3.342-3.346-5.76-7.254-7.314-11.414-4.248-11.376-1.826-24.682 7.322-33.83l146.748-146.746c9.15-9.148 22.452-11.568 33.83-7.322 4.16 1.552 8.070 3.97 11.416 7.312 0.002 0.004 0.006 0.006 0.010 0.010l310.648 310.65 310.648-310.65c0.004-0.002 0.008-0.006 0.012-0.008 3.348-3.344 7.254-5.762 11.414-7.314 11.378-4.246 24.684-1.826 33.828 7.322l146.746 146.748c9.148 9.148 11.57 22.454 7.324 33.83-1.552 4.16-3.97 8.068-7.314 11.414z" />
<glyph unicode="&#xe920;" glyph-name="checkmark" d="M864 832l-480-480-224 224-160-160 384-384 640 640z" />
<glyph unicode="&#xe921;" glyph-name="radio-checked" d="M512 69.12c-208.914 0-378.88 169.964-378.88 378.88 0 208.914 169.966 378.88 378.88 378.88 208.916 0 378.88-169.966 378.88-378.88 0-208.916-169.964-378.88-378.88-378.88zM512 796.16c92.996 0 180.429-36.215 246.186-101.974 65.757-65.757 101.974-153.188 101.974-246.186 0-92.996-36.217-180.429-101.974-246.186s-153.19-101.974-246.186-101.974c-92.998 0-180.429 36.217-246.186 101.974-65.759 65.757-101.974 153.19-101.974 246.186 0 92.998 36.215 180.429 101.974 246.186 65.757 65.759 153.188 101.974 246.186 101.974zM512 857.6c-226.216 0-409.6-183.384-409.6-409.6s183.384-409.6 409.6-409.6 409.6 183.384 409.6 409.6-183.384 409.6-409.6 409.6v0z" />
<glyph unicode="&#xe922;" glyph-name="radio-unchecked" d="M512 796.16c92.996 0 180.429-36.215 246.186-101.974 65.757-65.757 101.974-153.188 101.974-246.186 0-92.996-36.217-180.429-101.974-246.186s-153.19-101.974-246.186-101.974c-92.998 0-180.429 36.217-246.186 101.974-65.759 65.757-101.974 153.19-101.974 246.186 0 92.998 36.215 180.429 101.974 246.186 65.757 65.759 153.188 101.974 246.186 101.974zM512 857.6c-226.216 0-409.6-183.384-409.6-409.6s183.384-409.6 409.6-409.6 409.6 183.384 409.6 409.6-183.384 409.6-409.6 409.6v0z" />
<glyph unicode="&#xe923;" glyph-name="checkbox-checked" d="M896 960h-768c-70.4 0-128-57.6-128-128v-768c0-70.4 57.6-128 128-128h768c70.4 0 128 57.6 128 128v768c0 70.4-57.6 128-128 128zM448 165.49l-237.254 237.256 90.51 90.508 146.744-146.744 306.746 306.746 90.508-90.51-397.254-397.256z" />
<glyph unicode="&#xe924;" glyph-name="checkbox-unchecked" d="M896 960h-768c-70.4 0-128-57.6-128-128v-768c0-70.4 57.6-128 128-128h768c70.4 0 128 57.6 128 128v768c0 70.4-57.6 128-128 128zM896 64h-768v768h768v-768z" />
<glyph unicode="&#xf026;" glyph-name="heavy-notification" horiz-adv-x="896" d="M448 896c-247.438 0-448-200.562-448-448s200.562-448 448-448c247.438 0 448 200.562 448 448s-200.562 448-448 448zM448 128c-176.781 0-320 143.25-320 320 0 176.781 143.219 320 320 320 176.75 0 320-143.219 320-320 0-176.75-143.25-320-320-320zM384 192h128v128h-128v-128zM384 384h128v320h-128v-320z" />
<glyph unicode="&#xf044;" glyph-name="trileft" horiz-adv-x="383" d="M0 448.125l383.75-383.75v767.5l-383.75-383.75z" />
<glyph unicode="&#xf052;" glyph-name="record" horiz-adv-x="511" d="M-0.088 448c0 141.5 114.5 256 256 256 141.438 0 256-114.5 256-256s-114.562-256-256-256c-141.499 0-256 114.5-256 256z" />
<glyph unicode="&#xf053;" glyph-name="stop" horiz-adv-x="512" d="M512 192h-512v512h512v-512z" />
<glyph unicode="&#xf059;" glyph-name="heavy-info" horiz-adv-x="896" d="M448 576c35 0 64 29 64 64s-29 64-64 64-64-29-64-64 29-64 64-64zM448 896c-247 0-448-201-448-448s201-448 448-448 448 201 448 448-201 448-448 448zM448 128c-177 0-320 143-320 320s143 320 320 320 320-143 320-320-143-320-320-320zM512 448c0 32-32 64-64 64s-32 0-64 0-64-32-64-64h64s0-160 0-192 32-64 64-64 32 0 64 0 64 32 64 64h-64s0 160 0 192z" />
<glyph unicode="&#xf05a;" glyph-name="triright" horiz-adv-x="383" d="M0.062 831.75l383.75-383.75-383.75-383.75v767.5z" />
<glyph unicode="&#xf05b;" glyph-name="tridown" horiz-adv-x="767" d="M0 576l383.75-383.75 383.75 383.75h-767.5z" />
<glyph unicode="&#xf05e;" glyph-name="menu" horiz-adv-x="768" d="M0 768v-128h768v128h-768zM0 384h768v128h-768v-128zM0 128h768v128h-768v-128z" />
<glyph unicode="&#xf066;" glyph-name="fullscreen" horiz-adv-x="895" d="M128 192h639.875v512h-639.875v-512zM255.938 576h384v-256h-384v256zM64 767.938h191.938v64h-255.938v-255.938h64v191.938zM64 320h-64v-255.938h255.938v63.938h-191.938v192zM639.938 831.938v-64h191.938v-191.938h64v255.938h-255.938zM831.875 128h-191.937v-63.938h255.938v255.938h-64v-192z" />
<glyph unicode="&#xf067;" glyph-name="normscreen" horiz-adv-x="896" d="M127.938 768.062h-127.938v-64h191.938v191.938h-64v-127.938zM0 127.938h127.938v-127.938h64v191.938h-191.938v-64zM768.062 768.062v127.938h-64v-191.938h191.938v64h-127.938zM704.062 0h64v127.938h127.938v64h-191.938v-191.938zM192.062 256h511.938v384h-511.938v-384zM320 512h256v-128h-256v128z" />
<glyph unicode="&#xf072;" glyph-name="bottom" horiz-adv-x="768" d="M767.75 768h-767.5l383.75-383.75 383.75 383.75zM0 256v-128h768v128h-768z" />
<glyph unicode="&#xf073;" glyph-name="top" horiz-adv-x="768" d="M0.188 128h767.5l-383.688 383.75-383.812-383.75zM0 768v-128h768v128h-768z" />
<glyph unicode="&#xf078;" glyph-name="right" horiz-adv-x="448" d="M128 768l-128-128 192-192-192-192 128-128 320 320-320 320z" />
<glyph unicode="&#xf07c;" glyph-name="controls" horiz-adv-x="896" d="M64 64h128v192h-128v-192zM192 832h-128v-320h128v320zM512 832h-128v-128h128v128zM0 320h256v128h-256v-128zM384 64h128v384h-128v-384zM320 512h256v128h-256v-128zM832 832h-128v-384h128v384zM640 384v-128h256v128h-256zM704 64h128v128h-128v-128z" />
<glyph unicode="&#xf080;" glyph-name="mute" horiz-adv-x="896" d="M128 576h-128v-256h128l256-192h64v640h-64l-256-192zM864 544l-64 64-96-96-96 96-63-63.5 95-96.5-96-96 64-64 96 96 96-96 64 64-96 96 96 96z" />
<glyph unicode="&#xf0a2;" glyph-name="up" horiz-adv-x="640" d="M320 704l-320-320 128-128 192 192 192-192 128 128-320 320z" />
<glyph unicode="&#xf0a3;" glyph-name="down" horiz-adv-x="640" d="M512 640l-192-192-192 192-128-128 320-320 320 320-128 128z" />
<glyph unicode="&#xf0a4;" glyph-name="left" horiz-adv-x="448" d="M448 640l-128 128-320-320 320-320 128 128-192 192 192 192z" />
<glyph unicode="&#xf0a5;" glyph-name="previous" horiz-adv-x="640" d="M256.25 448l383.75-383.75v767.5l-383.75-383.75zM0 64h128v768h-128v-768z" />
<glyph unicode="&#xf0a6;" glyph-name="next" horiz-adv-x="640" d="M0 64.25l383.75 383.75-383.75 383.812v-767.562zM512 832v-768h128v768h-128z" />
<glyph unicode="&#xf0aa;" glyph-name="triup" horiz-adv-x="767" d="M383.75 704l-383.75-383.75h767.5l-383.75 383.75z" />
<glyph unicode="&#xf0ba;" glyph-name="loud" horiz-adv-x="896" d="M128 576h-128v-256h128l256-192h64v640h-64l-256-192zM538.51 538.51c-12.496 12.497-32.758 12.497-45.255 0-12.496-12.496-12.496-32.758 0-45.255 24.994-24.993 24.994-65.516 0-90.51-12.496-12.496-12.496-32.758 0-45.255 12.497-12.496 32.759-12.496 45.255 0 49.987 49.989 49.987 131.033 0 181.020zM629.020 629.019c-12.495 12.497-32.758 12.497-45.255 0-12.495-12.496-12.495-32.758 0-45.255 74.981-74.98 74.981-196.548 0-271.528-12.495-12.497-12.495-32.76 0-45.256 12.497-12.496 32.76-12.496 45.255 0 99.974 99.974 99.974 262.065 0 362.039zM719.529 719.529c-12.497 12.497-32.76 12.497-45.255 0s-12.496-32.758 0-45.255c124.968-124.968 124.968-327.58 0-452.548-12.496-12.497-12.496-32.759 0-45.255s32.758-12.497 45.255 0c149.961 149.962 149.961 393.097 0 543.058z" />
<glyph unicode="&#xf0bb;" glyph-name="pause" horiz-adv-x="512" d="M0 128h192v640h-192v-640zM320 768v-640h192v640h-192z" />
<glyph unicode="&#xf0bc;" glyph-name="rewind" horiz-adv-x="768" d="M384 448l384-256v512l-384-256zM0 448l384-256v512l-384-256z" />
<glyph unicode="&#xf0bd;" glyph-name="forward" horiz-adv-x="768" d="M0 192l384 256-384 256v-512zM768 448l-384 256v-512l384 256z" />
<glyph unicode="&#xf0bf;" glyph-name="play" horiz-adv-x="512" d="M0 768l512-320-512-320v640z" />
<glyph unicode="" glyph-name="play" horiz-adv-x="512" d="M0 768l512-320-512-320v640z" />
<glyph unicode="xmark" glyph-name="xmark" d="M1014.662 137.34c-0.004 0.004-0.008 0.008-0.012 0.010l-310.644 310.65 310.644 310.65c0.004 0.004 0.008 0.006 0.012 0.010 3.344 3.346 5.762 7.254 7.312 11.416 4.246 11.376 1.824 24.682-7.324 33.83l-146.746 146.746c-9.148 9.146-22.45 11.566-33.828 7.32-4.16-1.55-8.070-3.968-11.418-7.31 0-0.004-0.004-0.006-0.008-0.010l-310.648-310.652-310.648 310.65c-0.004 0.004-0.006 0.006-0.010 0.010-3.346 3.342-7.254 5.76-11.414 7.31-11.38 4.248-24.682 1.826-33.83-7.32l-146.748-146.748c-9.148-9.148-11.568-22.452-7.322-33.828 1.552-4.16 3.97-8.072 7.312-11.416 0.004-0.002 0.006-0.006 0.010-0.010l310.65-310.648-310.65-310.652c-0.002-0.004-0.006-0.006-0.008-0.010-3.342-3.346-5.76-7.254-7.314-11.414-4.248-11.376-1.826-24.682 7.322-33.83l146.748-146.746c9.15-9.148 22.452-11.568 33.83-7.322 4.16 1.552 8.070 3.97 11.416 7.312 0.002 0.004 0.006 0.006 0.010 0.010l310.648 310.65 310.648-310.65c0.004-0.002 0.008-0.006 0.012-0.008 3.348-3.344 7.254-5.762 11.414-7.314 11.378-4.246 24.684-1.826 33.828 7.322l146.746 146.748c9.148 9.148 11.57 22.454 7.324 33.83-1.552 4.16-3.97 8.068-7.314 11.414z" />
<glyph unicode="whitecircle" glyph-name="radio-unchecked" d="M512 796.16c92.996 0 180.429-36.215 246.186-101.974 65.757-65.757 101.974-153.188 101.974-246.186 0-92.996-36.217-180.429-101.974-246.186s-153.19-101.974-246.186-101.974c-92.998 0-180.429 36.217-246.186 101.974-65.759 65.757-101.974 153.19-101.974 246.186 0 92.998 36.215 180.429 101.974 246.186 65.757 65.759 153.188 101.974 246.186 101.974zM512 857.6c-226.216 0-409.6-183.384-409.6-409.6s183.384-409.6 409.6-409.6 409.6 183.384 409.6 409.6-183.384 409.6-409.6 409.6v0z" />
<glyph unicode="white-circle" glyph-name="radio-unchecked" d="M512 796.16c92.996 0 180.429-36.215 246.186-101.974 65.757-65.757 101.974-153.188 101.974-246.186 0-92.996-36.217-180.429-101.974-246.186s-153.19-101.974-246.186-101.974c-92.998 0-180.429 36.217-246.186 101.974-65.759 65.757-101.974 153.19-101.974 246.186 0 92.998 36.215 180.429 101.974 246.186 65.757 65.759 153.188 101.974 246.186 101.974zM512 857.6c-226.216 0-409.6-183.384-409.6-409.6s183.384-409.6 409.6-409.6 409.6 183.384 409.6 409.6-183.384 409.6-409.6 409.6v0z" />
<glyph unicode="white circle" glyph-name="radio-unchecked" d="M512 796.16c92.996 0 180.429-36.215 246.186-101.974 65.757-65.757 101.974-153.188 101.974-246.186 0-92.996-36.217-180.429-101.974-246.186s-153.19-101.974-246.186-101.974c-92.998 0-180.429 36.217-246.186 101.974-65.759 65.757-101.974 153.19-101.974 246.186 0 92.998 36.215 180.429 101.974 246.186 65.757 65.759 153.188 101.974 246.186 101.974zM512 857.6c-226.216 0-409.6-183.384-409.6-409.6s183.384-409.6 409.6-409.6 409.6 183.384 409.6 409.6-183.384 409.6-409.6 409.6v0z" />
<glyph unicode="warning" glyph-name="warning" d="M512 867.226l429.102-855.226h-858.206l429.104 855.226zM512 960c-22.070 0-44.14-14.882-60.884-44.648l-437.074-871.112c-33.486-59.532-5-108.24 63.304-108.24h869.308c68.3 0 96.792 48.708 63.3 108.24h0.002l-437.074 871.112c-16.742 29.766-38.812 44.648-60.882 44.648v0zM576 128c0-35.346-28.654-64-64-64s-64 28.654-64 64c0 35.346 28.654 64 64 64s64-28.654 64-64zM512 256c-35.346 0-64 28.654-64 64v192c0 35.346 28.654 64 64 64s64-28.654 64-64v-192c0-35.346-28.654-64-64-64z" />
<glyph unicode="volumeup" glyph-name="volume-up" d="M1024 384h-192v-192h-128v192h-192v128h192v192h128v-192h192v-128zM416.006 0c-8.328 0-16.512 3.25-22.634 9.374l-246.626 246.626h-114.746c-17.672 0-32 14.326-32 32v320c0 17.672 14.328 32 32 32h114.746l246.626 246.628c9.154 9.154 22.916 11.89 34.874 6.936 11.958-4.952 19.754-16.622 19.754-29.564v-832c0-12.944-7.796-24.612-19.754-29.564-3.958-1.64-8.118-2.436-12.24-2.436z" />
<glyph unicode="volumemute" glyph-name="volume-mute" d="M960 340.852v-84.852h-84.852l-107.148 107.148-107.148-107.148h-84.852v84.852l107.148 107.148-107.148 107.148v84.852h84.852l107.148-107.148 107.148 107.148h84.852v-84.852l-107.148-107.148 107.148-107.148zM416.006 0c-8.328 0-16.512 3.25-22.634 9.374l-246.626 246.626h-114.746c-17.672 0-32 14.326-32 32v320c0 17.672 14.328 32 32 32h114.746l246.626 246.628c9.154 9.154 22.916 11.89 34.874 6.936 11.958-4.952 19.754-16.622 19.754-29.564v-832c0-12.944-7.796-24.612-19.754-29.564-3.958-1.64-8.118-2.436-12.24-2.436z" />
<glyph unicode="volumemin" glyph-name="volume-min" d="M416.006 0c-8.328 0-16.512 3.25-22.634 9.374l-246.626 246.626h-114.746c-17.672 0-32 14.326-32 32v320c0 17.672 14.328 32 32 32h114.746l246.626 246.628c9.154 9.154 22.916 11.89 34.874 6.936 11.958-4.952 19.754-16.622 19.754-29.564v-832c0-12.944-7.796-24.612-19.754-29.564-3.958-1.64-8.118-2.436-12.24-2.436z" />
<glyph unicode="volumemid" glyph-name="volume-mid" d="M719.53 128.47c-12.286 0-24.566 4.686-33.942 14.056-18.744 18.744-18.744 49.136 0 67.882 131.006 131.006 131.006 344.17 0 475.176-18.744 18.746-18.744 49.138 0 67.882 18.744 18.742 49.138 18.744 67.882 0 81.594-81.59 126.53-190.074 126.53-305.466 0-115.39-44.936-223.876-126.53-305.47-9.372-9.374-21.656-14.060-33.94-14.060v0zM549.020 218.98c-12.286 0-24.566 4.686-33.942 14.058-18.746 18.746-18.746 49.134 0 67.88 81.1 81.1 81.1 213.058 0 294.156-18.746 18.746-18.746 49.138 0 67.882s49.136 18.744 67.882 0c118.53-118.53 118.53-311.392 0-429.922-9.372-9.368-21.656-14.054-33.94-14.054zM416.006 0c-8.328 0-16.512 3.25-22.634 9.374l-246.626 246.626h-114.746c-17.672 0-32 14.326-32 32v320c0 17.672 14.328 32 32 32h114.746l246.626 246.628c9.154 9.154 22.916 11.89 34.874 6.936 11.958-4.952 19.754-16.622 19.754-29.564v-832c0-12.944-7.796-24.612-19.754-29.564-3.958-1.64-8.118-2.436-12.24-2.436z" />
<glyph unicode="volumemax" glyph-name="volume-max" horiz-adv-x="1088" d="M890.040 37.96c-12.286 0-24.566 4.686-33.942 14.056-18.744 18.746-18.744 49.136 0 67.882 87.638 87.642 135.904 204.16 135.904 328.1 0 123.938-48.266 240.458-135.904 328.098-18.744 18.746-18.744 49.138 0 67.882s49.138 18.744 67.882 0c105.77-105.772 164.022-246.4 164.022-395.98s-58.252-290.208-164.022-395.98c-9.372-9.372-21.656-14.058-33.94-14.058zM719.53 128.47c-12.286 0-24.566 4.686-33.942 14.056-18.744 18.744-18.744 49.136 0 67.882 131.006 131.006 131.006 344.17 0 475.176-18.744 18.746-18.744 49.138 0 67.882 18.744 18.742 49.138 18.744 67.882 0 81.594-81.59 126.53-190.074 126.53-305.466 0-115.39-44.936-223.876-126.53-305.47-9.372-9.374-21.656-14.060-33.94-14.060v0zM549.020 218.98c-12.286 0-24.568 4.686-33.942 14.058-18.746 18.746-18.746 49.134 0 67.88 81.1 81.1 81.1 213.058 0 294.156-18.746 18.746-18.746 49.138 0 67.882s49.136 18.744 67.882 0c118.53-118.53 118.53-311.392 0-429.922-9.372-9.368-21.656-14.054-33.94-14.054zM416.006 0c-8.328 0-16.512 3.25-22.634 9.374l-246.626 246.626h-114.746c-17.672 0-32 14.326-32 32v320c0 17.672 14.328 32 32 32h114.746l246.626 246.628c9.154 9.154 22.916 11.89 34.874 6.936 11.958-4.952 19.754-16.622 19.754-29.564v-832c0-12.944-7.796-24.612-19.754-29.564-3.958-1.64-8.118-2.436-12.24-2.436z" />
<glyph unicode="volumelow" glyph-name="volume-low" d="M549.020 218.98c-12.286 0-24.566 4.686-33.942 14.058-18.746 18.746-18.746 49.134 0 67.88 81.1 81.1 81.1 213.058 0 294.156-18.746 18.746-18.746 49.138 0 67.882s49.136 18.744 67.882 0c118.53-118.53 118.53-311.392 0-429.922-9.372-9.368-21.656-14.054-33.94-14.054zM416.006 0c-8.328 0-16.512 3.25-22.634 9.374l-246.626 246.626h-114.746c-17.672 0-32 14.326-32 32v320c0 17.672 14.328 32 32 32h114.746l246.626 246.628c9.154 9.154 22.916 11.89 34.874 6.936 11.958-4.952 19.754-16.622 19.754-29.564v-832c0-12.944-7.796-24.612-19.754-29.564-3.958-1.64-8.118-2.436-12.24-2.436z" />
<glyph unicode="volumedown" glyph-name="volume-down" d="M512 512h512v-128h-512v128zM416.006 0c-8.328 0-16.512 3.25-22.634 9.374l-246.626 246.626h-114.746c-17.672 0-32 14.326-32 32v320c0 17.672 14.328 32 32 32h114.746l246.626 246.628c9.154 9.154 22.916 11.89 34.874 6.936 11.958-4.952 19.754-16.622 19.754-29.564v-832c0-12.944-7.796-24.612-19.754-29.564-3.958-1.64-8.118-2.436-12.24-2.436z" />
<glyph unicode="volume-up" glyph-name="volume-up" d="M1024 384h-192v-192h-128v192h-192v128h192v192h128v-192h192v-128zM416.006 0c-8.328 0-16.512 3.25-22.634 9.374l-246.626 246.626h-114.746c-17.672 0-32 14.326-32 32v320c0 17.672 14.328 32 32 32h114.746l246.626 246.628c9.154 9.154 22.916 11.89 34.874 6.936 11.958-4.952 19.754-16.622 19.754-29.564v-832c0-12.944-7.796-24.612-19.754-29.564-3.958-1.64-8.118-2.436-12.24-2.436z" />
<glyph unicode="volume-mute" glyph-name="volume-mute" d="M960 340.852v-84.852h-84.852l-107.148 107.148-107.148-107.148h-84.852v84.852l107.148 107.148-107.148 107.148v84.852h84.852l107.148-107.148 107.148 107.148h84.852v-84.852l-107.148-107.148 107.148-107.148zM416.006 0c-8.328 0-16.512 3.25-22.634 9.374l-246.626 246.626h-114.746c-17.672 0-32 14.326-32 32v320c0 17.672 14.328 32 32 32h114.746l246.626 246.628c9.154 9.154 22.916 11.89 34.874 6.936 11.958-4.952 19.754-16.622 19.754-29.564v-832c0-12.944-7.796-24.612-19.754-29.564-3.958-1.64-8.118-2.436-12.24-2.436z" />
<glyph unicode="volume-min" glyph-name="volume-min" d="M416.006 0c-8.328 0-16.512 3.25-22.634 9.374l-246.626 246.626h-114.746c-17.672 0-32 14.326-32 32v320c0 17.672 14.328 32 32 32h114.746l246.626 246.628c9.154 9.154 22.916 11.89 34.874 6.936 11.958-4.952 19.754-16.622 19.754-29.564v-832c0-12.944-7.796-24.612-19.754-29.564-3.958-1.64-8.118-2.436-12.24-2.436z" />
<glyph unicode="volume-mid" glyph-name="volume-mid" d="M719.53 128.47c-12.286 0-24.566 4.686-33.942 14.056-18.744 18.744-18.744 49.136 0 67.882 131.006 131.006 131.006 344.17 0 475.176-18.744 18.746-18.744 49.138 0 67.882 18.744 18.742 49.138 18.744 67.882 0 81.594-81.59 126.53-190.074 126.53-305.466 0-115.39-44.936-223.876-126.53-305.47-9.372-9.374-21.656-14.060-33.94-14.060v0zM549.020 218.98c-12.286 0-24.566 4.686-33.942 14.058-18.746 18.746-18.746 49.134 0 67.88 81.1 81.1 81.1 213.058 0 294.156-18.746 18.746-18.746 49.138 0 67.882s49.136 18.744 67.882 0c118.53-118.53 118.53-311.392 0-429.922-9.372-9.368-21.656-14.054-33.94-14.054zM416.006 0c-8.328 0-16.512 3.25-22.634 9.374l-246.626 246.626h-114.746c-17.672 0-32 14.326-32 32v320c0 17.672 14.328 32 32 32h114.746l246.626 246.628c9.154 9.154 22.916 11.89 34.874 6.936 11.958-4.952 19.754-16.622 19.754-29.564v-832c0-12.944-7.796-24.612-19.754-29.564-3.958-1.64-8.118-2.436-12.24-2.436z" />
<glyph unicode="volume-max" glyph-name="volume-max" horiz-adv-x="1088" d="M890.040 37.96c-12.286 0-24.566 4.686-33.942 14.056-18.744 18.746-18.744 49.136 0 67.882 87.638 87.642 135.904 204.16 135.904 328.1 0 123.938-48.266 240.458-135.904 328.098-18.744 18.746-18.744 49.138 0 67.882s49.138 18.744 67.882 0c105.77-105.772 164.022-246.4 164.022-395.98s-58.252-290.208-164.022-395.98c-9.372-9.372-21.656-14.058-33.94-14.058zM719.53 128.47c-12.286 0-24.566 4.686-33.942 14.056-18.744 18.744-18.744 49.136 0 67.882 131.006 131.006 131.006 344.17 0 475.176-18.744 18.746-18.744 49.138 0 67.882 18.744 18.742 49.138 18.744 67.882 0 81.594-81.59 126.53-190.074 126.53-305.466 0-115.39-44.936-223.876-126.53-305.47-9.372-9.374-21.656-14.060-33.94-14.060v0zM549.020 218.98c-12.286 0-24.568 4.686-33.942 14.058-18.746 18.746-18.746 49.134 0 67.88 81.1 81.1 81.1 213.058 0 294.156-18.746 18.746-18.746 49.138 0 67.882s49.136 18.744 67.882 0c118.53-118.53 118.53-311.392 0-429.922-9.372-9.368-21.656-14.054-33.94-14.054zM416.006 0c-8.328 0-16.512 3.25-22.634 9.374l-246.626 246.626h-114.746c-17.672 0-32 14.326-32 32v320c0 17.672 14.328 32 32 32h114.746l246.626 246.628c9.154 9.154 22.916 11.89 34.874 6.936 11.958-4.952 19.754-16.622 19.754-29.564v-832c0-12.944-7.796-24.612-19.754-29.564-3.958-1.64-8.118-2.436-12.24-2.436z" />
<glyph unicode="volume-low" glyph-name="volume-low" d="M549.020 218.98c-12.286 0-24.566 4.686-33.942 14.058-18.746 18.746-18.746 49.134 0 67.88 81.1 81.1 81.1 213.058 0 294.156-18.746 18.746-18.746 49.138 0 67.882s49.136 18.744 67.882 0c118.53-118.53 118.53-311.392 0-429.922-9.372-9.368-21.656-14.054-33.94-14.054zM416.006 0c-8.328 0-16.512 3.25-22.634 9.374l-246.626 246.626h-114.746c-17.672 0-32 14.326-32 32v320c0 17.672 14.328 32 32 32h114.746l246.626 246.628c9.154 9.154 22.916 11.89 34.874 6.936 11.958-4.952 19.754-16.622 19.754-29.564v-832c0-12.944-7.796-24.612-19.754-29.564-3.958-1.64-8.118-2.436-12.24-2.436z" />
<glyph unicode="volume-down" glyph-name="volume-down" d="M512 512h512v-128h-512v128zM416.006 0c-8.328 0-16.512 3.25-22.634 9.374l-246.626 246.626h-114.746c-17.672 0-32 14.326-32 32v320c0 17.672 14.328 32 32 32h114.746l246.626 246.628c9.154 9.154 22.916 11.89 34.874 6.936 11.958-4.952 19.754-16.622 19.754-29.564v-832c0-12.944-7.796-24.612-19.754-29.564-3.958-1.64-8.118-2.436-12.24-2.436z" />
<glyph unicode="volume up" glyph-name="volume-up" d="M1024 384h-192v-192h-128v192h-192v128h192v192h128v-192h192v-128zM416.006 0c-8.328 0-16.512 3.25-22.634 9.374l-246.626 246.626h-114.746c-17.672 0-32 14.326-32 32v320c0 17.672 14.328 32 32 32h114.746l246.626 246.628c9.154 9.154 22.916 11.89 34.874 6.936 11.958-4.952 19.754-16.622 19.754-29.564v-832c0-12.944-7.796-24.612-19.754-29.564-3.958-1.64-8.118-2.436-12.24-2.436z" />
<glyph unicode="volume mute" glyph-name="volume-mute" d="M960 340.852v-84.852h-84.852l-107.148 107.148-107.148-107.148h-84.852v84.852l107.148 107.148-107.148 107.148v84.852h84.852l107.148-107.148 107.148 107.148h84.852v-84.852l-107.148-107.148 107.148-107.148zM416.006 0c-8.328 0-16.512 3.25-22.634 9.374l-246.626 246.626h-114.746c-17.672 0-32 14.326-32 32v320c0 17.672 14.328 32 32 32h114.746l246.626 246.628c9.154 9.154 22.916 11.89 34.874 6.936 11.958-4.952 19.754-16.622 19.754-29.564v-832c0-12.944-7.796-24.612-19.754-29.564-3.958-1.64-8.118-2.436-12.24-2.436z" />
<glyph unicode="volume min" glyph-name="volume-min" d="M416.006 0c-8.328 0-16.512 3.25-22.634 9.374l-246.626 246.626h-114.746c-17.672 0-32 14.326-32 32v320c0 17.672 14.328 32 32 32h114.746l246.626 246.628c9.154 9.154 22.916 11.89 34.874 6.936 11.958-4.952 19.754-16.622 19.754-29.564v-832c0-12.944-7.796-24.612-19.754-29.564-3.958-1.64-8.118-2.436-12.24-2.436z" />
<glyph unicode="volume mid" glyph-name="volume-mid" d="M719.53 128.47c-12.286 0-24.566 4.686-33.942 14.056-18.744 18.744-18.744 49.136 0 67.882 131.006 131.006 131.006 344.17 0 475.176-18.744 18.746-18.744 49.138 0 67.882 18.744 18.742 49.138 18.744 67.882 0 81.594-81.59 126.53-190.074 126.53-305.466 0-115.39-44.936-223.876-126.53-305.47-9.372-9.374-21.656-14.060-33.94-14.060v0zM549.020 218.98c-12.286 0-24.566 4.686-33.942 14.058-18.746 18.746-18.746 49.134 0 67.88 81.1 81.1 81.1 213.058 0 294.156-18.746 18.746-18.746 49.138 0 67.882s49.136 18.744 67.882 0c118.53-118.53 118.53-311.392 0-429.922-9.372-9.368-21.656-14.054-33.94-14.054zM416.006 0c-8.328 0-16.512 3.25-22.634 9.374l-246.626 246.626h-114.746c-17.672 0-32 14.326-32 32v320c0 17.672 14.328 32 32 32h114.746l246.626 246.628c9.154 9.154 22.916 11.89 34.874 6.936 11.958-4.952 19.754-16.622 19.754-29.564v-832c0-12.944-7.796-24.612-19.754-29.564-3.958-1.64-8.118-2.436-12.24-2.436z" />
<glyph unicode="volume max" glyph-name="volume-max" horiz-adv-x="1088" d="M890.040 37.96c-12.286 0-24.566 4.686-33.942 14.056-18.744 18.746-18.744 49.136 0 67.882 87.638 87.642 135.904 204.16 135.904 328.1 0 123.938-48.266 240.458-135.904 328.098-18.744 18.746-18.744 49.138 0 67.882s49.138 18.744 67.882 0c105.77-105.772 164.022-246.4 164.022-395.98s-58.252-290.208-164.022-395.98c-9.372-9.372-21.656-14.058-33.94-14.058zM719.53 128.47c-12.286 0-24.566 4.686-33.942 14.056-18.744 18.744-18.744 49.136 0 67.882 131.006 131.006 131.006 344.17 0 475.176-18.744 18.746-18.744 49.138 0 67.882 18.744 18.742 49.138 18.744 67.882 0 81.594-81.59 126.53-190.074 126.53-305.466 0-115.39-44.936-223.876-126.53-305.47-9.372-9.374-21.656-14.060-33.94-14.060v0zM549.020 218.98c-12.286 0-24.568 4.686-33.942 14.058-18.746 18.746-18.746 49.134 0 67.88 81.1 81.1 81.1 213.058 0 294.156-18.746 18.746-18.746 49.138 0 67.882s49.136 18.744 67.882 0c118.53-118.53 118.53-311.392 0-429.922-9.372-9.368-21.656-14.054-33.94-14.054zM416.006 0c-8.328 0-16.512 3.25-22.634 9.374l-246.626 246.626h-114.746c-17.672 0-32 14.326-32 32v320c0 17.672 14.328 32 32 32h114.746l246.626 246.628c9.154 9.154 22.916 11.89 34.874 6.936 11.958-4.952 19.754-16.622 19.754-29.564v-832c0-12.944-7.796-24.612-19.754-29.564-3.958-1.64-8.118-2.436-12.24-2.436z" />
<glyph unicode="volume low" glyph-name="volume-low" d="M549.020 218.98c-12.286 0-24.566 4.686-33.942 14.058-18.746 18.746-18.746 49.134 0 67.88 81.1 81.1 81.1 213.058 0 294.156-18.746 18.746-18.746 49.138 0 67.882s49.136 18.744 67.882 0c118.53-118.53 118.53-311.392 0-429.922-9.372-9.368-21.656-14.054-33.94-14.054zM416.006 0c-8.328 0-16.512 3.25-22.634 9.374l-246.626 246.626h-114.746c-17.672 0-32 14.326-32 32v320c0 17.672 14.328 32 32 32h114.746l246.626 246.628c9.154 9.154 22.916 11.89 34.874 6.936 11.958-4.952 19.754-16.622 19.754-29.564v-832c0-12.944-7.796-24.612-19.754-29.564-3.958-1.64-8.118-2.436-12.24-2.436z" />
<glyph unicode="volume down" glyph-name="volume-down" d="M512 512h512v-128h-512v128zM416.006 0c-8.328 0-16.512 3.25-22.634 9.374l-246.626 246.626h-114.746c-17.672 0-32 14.326-32 32v320c0 17.672 14.328 32 32 32h114.746l246.626 246.628c9.154 9.154 22.916 11.89 34.874 6.936 11.958-4.952 19.754-16.622 19.754-29.564v-832c0-12.944-7.796-24.612-19.754-29.564-3.958-1.64-8.118-2.436-12.24-2.436z" />
<glyph unicode="up" glyph-name="up" horiz-adv-x="640" d="M320 704l-320-320 128-128 192 192 192-192 128 128-320 320z" />
<glyph unicode="unmute" glyph-name="loud" horiz-adv-x="896" d="M128 576h-128v-256h128l256-192h64v640h-64l-256-192zM538.51 538.51c-12.496 12.497-32.758 12.497-45.255 0-12.496-12.496-12.496-32.758 0-45.255 24.994-24.993 24.994-65.516 0-90.51-12.496-12.496-12.496-32.758 0-45.255 12.497-12.496 32.759-12.496 45.255 0 49.987 49.989 49.987 131.033 0 181.020zM629.020 629.019c-12.495 12.497-32.758 12.497-45.255 0-12.495-12.496-12.495-32.758 0-45.255 74.981-74.98 74.981-196.548 0-271.528-12.495-12.497-12.495-32.76 0-45.256 12.497-12.496 32.76-12.496 45.255 0 99.974 99.974 99.974 262.065 0 362.039zM719.529 719.529c-12.497 12.497-32.76 12.497-45.255 0s-12.496-32.758 0-45.255c124.968-124.968 124.968-327.58 0-452.548-12.496-12.497-12.496-32.759 0-45.255s32.758-12.497 45.255 0c149.961 149.962 149.961 393.097 0 543.058z" />
<glyph unicode="triup" glyph-name="triup" horiz-adv-x="767" d="M383.75 704l-383.75-383.75h767.5l-383.75 383.75z" />
<glyph unicode="triright" glyph-name="triright" horiz-adv-x="383" d="M0.062 831.75l383.75-383.75-383.75-383.75v767.5z" />
<glyph unicode="trileft" glyph-name="trileft" horiz-adv-x="383" d="M0 448.125l383.75-383.75v767.5l-383.75-383.75z" />
<glyph unicode="tridown" glyph-name="tridown" horiz-adv-x="767" d="M0 576l383.75-383.75 383.75 383.75h-767.5z" />
<glyph unicode="tri-up" glyph-name="triup" horiz-adv-x="767" d="M383.75 704l-383.75-383.75h767.5l-383.75 383.75z" />
<glyph unicode="tri-right" glyph-name="triright" horiz-adv-x="383" d="M0.062 831.75l383.75-383.75-383.75-383.75v767.5z" />
<glyph unicode="tri-left" glyph-name="trileft" horiz-adv-x="383" d="M0 448.125l383.75-383.75v767.5l-383.75-383.75z" />
<glyph unicode="tri-down" glyph-name="tridown" horiz-adv-x="767" d="M0 576l383.75-383.75 383.75 383.75h-767.5z" />
<glyph unicode="top" glyph-name="top" horiz-adv-x="768" d="M0.188 128h767.5l-383.688 383.75-383.812-383.75zM0 768v-128h768v128h-768z" />
<glyph unicode="tick" glyph-name="checkmark" d="M864 832l-480-480-224 224-160-160 384-384 640 640z" />
<glyph unicode="subtract" glyph-name="minus" d="M0 544v-192c0-17.672 14.328-32 32-32h960c17.672 0 32 14.328 32 32v192c0 17.672-14.328 32-32 32h-960c-17.672 0-32-14.328-32-32z" />
<glyph unicode="stop" glyph-name="stop" horiz-adv-x="512" d="M512 192h-512v512h512v-512z" />
<glyph unicode="shuffle" glyph-name="shuffle" d="M768 256h-101.49l-160 160 160 160h101.49v-160l224 224-224 224v-160h-128c-16.974 0-33.252-6.744-45.254-18.746l-178.746-178.744-178.746 178.746c-12 12-28.28 18.744-45.254 18.744h-192v-128h165.49l160-160-160-160h-165.49v-128h192c16.974 0 33.252 6.742 45.254 18.746l178.746 178.744 178.746-178.744c12.002-12.004 28.28-18.746 45.254-18.746h128v-160l224 224-224 224v-160z" />
<glyph unicode="shrink" glyph-name="shrink" d="M576 512h416l-160 160 192 192-96 96-192-192-160 160zM576 384v-416l160 160 192-192 96 96-192 192 160 160zM448 384.004h-416l160-160-192-192 96-96 192 192 160-160zM448 512v416l-160-160-192 192-96-96 192-192-160-160z" />
<glyph unicode="settings" glyph-name="controls" horiz-adv-x="896" d="M64 64h128v192h-128v-192zM192 832h-128v-320h128v320zM512 832h-128v-128h128v128zM0 320h256v128h-256v-128zM384 64h128v384h-128v-384zM320 512h256v128h-256v-128zM832 832h-128v-384h128v384zM640 384v-128h256v128h-256zM704 64h128v128h-128v-128z" />
<glyph unicode="right" glyph-name="right" horiz-adv-x="448" d="M128 768l-128-128 192-192-192-192 128-128 320 320-320 320z" />
<glyph unicode="rewind" glyph-name="rewind" horiz-adv-x="768" d="M384 448l384-256v512l-384-256zM0 448l384-256v512l-384-256z" />
<glyph unicode="repeat" glyph-name="repeat" d="M128 640h640v-192l256 256-256 256v-192h-768v-384h128zM896 256h-640v192l-256-256 256-256v192h768v384h-128z" />
<glyph unicode="record" glyph-name="record" horiz-adv-x="511" d="M-0.088 448c0 141.5 114.5 256 256 256 141.438 0 256-114.5 256-256s-114.562-256-256-256c-141.499 0-256 114.5-256 256z" />
<glyph unicode="random" glyph-name="shuffle" d="M768 256h-101.49l-160 160 160 160h101.49v-160l224 224-224 224v-160h-128c-16.974 0-33.252-6.744-45.254-18.746l-178.746-178.744-178.746 178.746c-12 12-28.28 18.744-45.254 18.744h-192v-128h165.49l160-160-160-160h-165.49v-128h192c16.974 0 33.252 6.742 45.254 18.746l178.746 178.744 178.746-178.744c12.002-12.004 28.28-18.746 45.254-18.746h128v-160l224 224-224 224v-160z" />
<glyph unicode="radiounchecked" glyph-name="radio-unchecked" d="M512 796.16c92.996 0 180.429-36.215 246.186-101.974 65.757-65.757 101.974-153.188 101.974-246.186 0-92.996-36.217-180.429-101.974-246.186s-153.19-101.974-246.186-101.974c-92.998 0-180.429 36.217-246.186 101.974-65.759 65.757-101.974 153.19-101.974 246.186 0 92.998 36.215 180.429 101.974 246.186 65.757 65.759 153.188 101.974 246.186 101.974zM512 857.6c-226.216 0-409.6-183.384-409.6-409.6s183.384-409.6 409.6-409.6 409.6 183.384 409.6 409.6-183.384 409.6-409.6 409.6v0z" />
<glyph unicode="radiochecked" glyph-name="radio-checked" d="M512 69.12c-208.914 0-378.88 169.964-378.88 378.88 0 208.914 169.966 378.88 378.88 378.88 208.916 0 378.88-169.966 378.88-378.88 0-208.916-169.964-378.88-378.88-378.88zM512 796.16c92.996 0 180.429-36.215 246.186-101.974 65.757-65.757 101.974-153.188 101.974-246.186 0-92.996-36.217-180.429-101.974-246.186s-153.19-101.974-246.186-101.974c-92.998 0-180.429 36.217-246.186 101.974-65.759 65.757-101.974 153.19-101.974 246.186 0 92.998 36.215 180.429 101.974 246.186 65.757 65.759 153.188 101.974 246.186 101.974zM512 857.6c-226.216 0-409.6-183.384-409.6-409.6s183.384-409.6 409.6-409.6 409.6 183.384 409.6 409.6-183.384 409.6-409.6 409.6v0z" />
<glyph unicode="radio-unchecked" glyph-name="radio-unchecked" d="M512 796.16c92.996 0 180.429-36.215 246.186-101.974 65.757-65.757 101.974-153.188 101.974-246.186 0-92.996-36.217-180.429-101.974-246.186s-153.19-101.974-246.186-101.974c-92.998 0-180.429 36.217-246.186 101.974-65.759 65.757-101.974 153.19-101.974 246.186 0 92.998 36.215 180.429 101.974 246.186 65.757 65.759 153.188 101.974 246.186 101.974zM512 857.6c-226.216 0-409.6-183.384-409.6-409.6s183.384-409.6 409.6-409.6 409.6 183.384 409.6 409.6-183.384 409.6-409.6 409.6v0z" />
<glyph unicode="radio-checked" glyph-name="radio-checked" d="M512 69.12c-208.914 0-378.88 169.964-378.88 378.88 0 208.914 169.966 378.88 378.88 378.88 208.916 0 378.88-169.966 378.88-378.88 0-208.916-169.964-378.88-378.88-378.88zM512 796.16c92.996 0 180.429-36.215 246.186-101.974 65.757-65.757 101.974-153.188 101.974-246.186 0-92.996-36.217-180.429-101.974-246.186s-153.19-101.974-246.186-101.974c-92.998 0-180.429 36.217-246.186 101.974-65.759 65.757-101.974 153.19-101.974 246.186 0 92.998 36.215 180.429 101.974 246.186 65.757 65.759 153.188 101.974 246.186 101.974zM512 857.6c-226.216 0-409.6-183.384-409.6-409.6s183.384-409.6 409.6-409.6 409.6 183.384 409.6 409.6-183.384 409.6-409.6 409.6v0z" />
<glyph unicode="radio unchecked" glyph-name="radio-unchecked" d="M512 796.16c92.996 0 180.429-36.215 246.186-101.974 65.757-65.757 101.974-153.188 101.974-246.186 0-92.996-36.217-180.429-101.974-246.186s-153.19-101.974-246.186-101.974c-92.998 0-180.429 36.217-246.186 101.974-65.759 65.757-101.974 153.19-101.974 246.186 0 92.998 36.215 180.429 101.974 246.186 65.757 65.759 153.188 101.974 246.186 101.974zM512 857.6c-226.216 0-409.6-183.384-409.6-409.6s183.384-409.6 409.6-409.6 409.6 183.384 409.6 409.6-183.384 409.6-409.6 409.6v0z" />
<glyph unicode="radio checked" glyph-name="radio-checked" d="M512 69.12c-208.914 0-378.88 169.964-378.88 378.88 0 208.914 169.966 378.88 378.88 378.88 208.916 0 378.88-169.966 378.88-378.88 0-208.916-169.964-378.88-378.88-378.88zM512 796.16c92.996 0 180.429-36.215 246.186-101.974 65.757-65.757 101.974-153.188 101.974-246.186 0-92.996-36.217-180.429-101.974-246.186s-153.19-101.974-246.186-101.974c-92.998 0-180.429 36.217-246.186 101.974-65.759 65.757-101.974 153.19-101.974 246.186 0 92.998 36.215 180.429 101.974 246.186 65.757 65.759 153.188 101.974 246.186 101.974zM512 857.6c-226.216 0-409.6-183.384-409.6-409.6s183.384-409.6 409.6-409.6 409.6 183.384 409.6 409.6-183.384 409.6-409.6 409.6v0z" />
<glyph unicode="question" glyph-name="question" d="M448 256h128v-128h-128zM704 704c35.346 0 64-28.654 64-64v-192l-192-128h-128v64l192 128v64h-320v128h384zM512 864c-111.118 0-215.584-43.272-294.156-121.844s-121.844-183.038-121.844-294.156c0-111.118 43.272-215.584 121.844-294.156s183.038-121.844 294.156-121.844c111.118 0 215.584 43.272 294.156 121.844s121.844 183.038 121.844 294.156c0 111.118-43.272 215.584-121.844 294.156s-183.038 121.844-294.156 121.844zM512 960v0c282.77 0 512-229.23 512-512s-229.23-512-512-512c-282.77 0-512 229.23-512 512s229.23 512 512 512z" />
<glyph unicode="previous" glyph-name="previous" horiz-adv-x="640" d="M256.25 448l383.75-383.75v767.5l-383.75-383.75zM0 64h128v768h-128v-768z" />
<glyph unicode="plus" glyph-name="plus" d="M992 576h-352v352c0 17.672-14.328 32-32 32h-192c-17.672 0-32-14.328-32-32v-352h-352c-17.672 0-32-14.328-32-32v-192c0-17.672 14.328-32 32-32h352v-352c0-17.672 14.328-32 32-32h192c17.672 0 32 14.328 32 32v352h352c17.672 0 32 14.328 32 32v192c0 17.672-14.328 32-32 32z" />
<glyph unicode="play" glyph-name="play" horiz-adv-x="512" d="M0 768l512-320-512-320v640z" />
<glyph unicode="pause" glyph-name="pause" horiz-adv-x="512" d="M0 128h192v640h-192v-640zM320 768v-640h192v640h-192z" />
<glyph unicode="options" glyph-name="controls" horiz-adv-x="896" d="M64 64h128v192h-128v-192zM192 832h-128v-320h128v320zM512 832h-128v-128h128v128zM0 320h256v128h-256v-128zM384 64h128v384h-128v-384zM320 512h256v128h-256v-128zM832 832h-128v-384h128v384zM640 384v-128h256v128h-256zM704 64h128v128h-128v-128z" />
<glyph unicode="notification" glyph-name="notification" d="M512 864c-111.118 0-215.584-43.272-294.156-121.844s-121.844-183.038-121.844-294.156c0-111.118 43.272-215.584 121.844-294.156s183.038-121.844 294.156-121.844c111.118 0 215.584 43.272 294.156 121.844s121.844 183.038 121.844 294.156c0 111.118-43.272 215.584-121.844 294.156s-183.038 121.844-294.156 121.844zM512 960v0c282.77 0 512-229.23 512-512s-229.23-512-512-512c-282.77 0-512 229.23-512 512s229.23 512 512 512zM448 256h128v-128h-128zM448 768h128v-384h-128z" />
<glyph unicode="normscreen" glyph-name="normscreen" horiz-adv-x="896" d="M127.938 768.062h-127.938v-64h191.938v191.938h-64v-127.938zM0 127.938h127.938v-127.938h64v191.938h-191.938v-64zM768.062 768.062v127.938h-64v-191.938h191.938v64h-127.938zM704.062 0h64v127.938h127.938v64h-191.938v-191.938zM192.062 256h511.938v384h-511.938v-384zM320 512h256v-128h-256v128z" />
<glyph unicode="norm-screen" glyph-name="normscreen" horiz-adv-x="896" d="M127.938 768.062h-127.938v-64h191.938v191.938h-64v-127.938zM0 127.938h127.938v-127.938h64v191.938h-191.938v-64zM768.062 768.062v127.938h-64v-191.938h191.938v64h-127.938zM704.062 0h64v127.938h127.938v64h-191.938v-191.938zM192.062 256h511.938v384h-511.938v-384zM320 512h256v-128h-256v128z" />
<glyph unicode="next" glyph-name="next" horiz-adv-x="640" d="M0 64.25l383.75 383.75-383.75 383.812v-767.562zM512 832v-768h128v768h-128z" />
<glyph unicode="mute" glyph-name="mute" horiz-adv-x="896" d="M128 576h-128v-256h128l256-192h64v640h-64l-256-192zM864 544l-64 64-96-96-96 96-63-63.5 95-96.5-96-96 64-64 96 96 96-96 64 64-96 96 96 96z" />
<glyph unicode="minus" glyph-name="minus" d="M0 544v-192c0-17.672 14.328-32 32-32h960c17.672 0 32 14.328 32 32v192c0 17.672-14.328 32-32 32h-960c-17.672 0-32-14.328-32-32z" />
<glyph unicode="menu" glyph-name="menu" horiz-adv-x="768" d="M0 768v-128h768v128h-768zM0 384h768v128h-768v-128zM0 128h768v128h-768v-128z" />
<glyph unicode="loud" glyph-name="loud" horiz-adv-x="896" d="M128 576h-128v-256h128l256-192h64v640h-64l-256-192zM538.51 538.51c-12.496 12.497-32.758 12.497-45.255 0-12.496-12.496-12.496-32.758 0-45.255 24.994-24.993 24.994-65.516 0-90.51-12.496-12.496-12.496-32.758 0-45.255 12.497-12.496 32.759-12.496 45.255 0 49.987 49.989 49.987 131.033 0 181.020zM629.020 629.019c-12.495 12.497-32.758 12.497-45.255 0-12.495-12.496-12.495-32.758 0-45.255 74.981-74.98 74.981-196.548 0-271.528-12.495-12.497-12.495-32.76 0-45.256 12.497-12.496 32.76-12.496 45.255 0 99.974 99.974 99.974 262.065 0 362.039zM719.529 719.529c-12.497 12.497-32.76 12.497-45.255 0s-12.496-32.758 0-45.255c124.968-124.968 124.968-327.58 0-452.548-12.496-12.497-12.496-32.759 0-45.255s32.758-12.497 45.255 0c149.961 149.962 149.961 393.097 0 543.058z" />
<glyph unicode="loop" glyph-name="repeat" d="M128 640h640v-192l256 256-256 256v-192h-768v-384h128zM896 256h-640v192l-256-256 256-256v192h768v384h-128z" />
<glyph unicode="left" glyph-name="left" horiz-adv-x="448" d="M448 640l-128 128-320-320 320-320 128 128-192 192 192 192z" />
<glyph unicode="last" glyph-name="last" d="M896 832v-768h-128v352l-320-320v320l-320-320v704l320-320v320l320-320v352z" />
<glyph unicode="jumpup" glyph-name="top" horiz-adv-x="768" d="M0.188 128h767.5l-383.688 383.75-383.812-383.75zM0 768v-128h768v128h-768z" />
<glyph unicode="jumpright" glyph-name="next" horiz-adv-x="640" d="M0 64.25l383.75 383.75-383.75 383.812v-767.562zM512 832v-768h128v768h-128z" />
<glyph unicode="jumpleft" glyph-name="previous" horiz-adv-x="640" d="M256.25 448l383.75-383.75v767.5l-383.75-383.75zM0 64h128v768h-128v-768z" />
<glyph unicode="jumpdown" glyph-name="bottom" horiz-adv-x="768" d="M767.75 768h-767.5l383.75-383.75 383.75 383.75zM0 256v-128h768v128h-768z" />
<glyph unicode="jump-up" glyph-name="top" horiz-adv-x="768" d="M0.188 128h767.5l-383.688 383.75-383.812-383.75zM0 768v-128h768v128h-768z" />
<glyph unicode="jump-right" glyph-name="next" horiz-adv-x="640" d="M0 64.25l383.75 383.75-383.75 383.812v-767.562zM512 832v-768h128v768h-128z" />
<glyph unicode="jump-left" glyph-name="previous" horiz-adv-x="640" d="M256.25 448l383.75-383.75v767.5l-383.75-383.75zM0 64h128v768h-128v-768z" />
<glyph unicode="jump-down" glyph-name="bottom" horiz-adv-x="768" d="M767.75 768h-767.5l383.75-383.75 383.75 383.75zM0 256v-128h768v128h-768z" />
<glyph unicode="jump up" glyph-name="top" horiz-adv-x="768" d="M0.188 128h767.5l-383.688 383.75-383.812-383.75zM0 768v-128h768v128h-768z" />
<glyph unicode="jump right" glyph-name="next" horiz-adv-x="640" d="M0 64.25l383.75 383.75-383.75 383.812v-767.562zM512 832v-768h128v768h-128z" />
<glyph unicode="jump left" glyph-name="previous" horiz-adv-x="640" d="M256.25 448l383.75-383.75v767.5l-383.75-383.75zM0 64h128v768h-128v-768z" />
<glyph unicode="jump down" glyph-name="bottom" horiz-adv-x="768" d="M767.75 768h-767.5l383.75-383.75 383.75 383.75zM0 256v-128h768v128h-768z" />
<glyph unicode="info" glyph-name="info" d="M448 656c0 26.4 21.6 48 48 48h32c26.4 0 48-21.6 48-48v-32c0-26.4-21.6-48-48-48h-32c-26.4 0-48 21.6-48 48v32zM640 192h-256v64h64v192h-64v64h192v-256h64zM512 960c-282.77 0-512-229.23-512-512s229.23-512 512-512 512 229.23 512 512-229.23 512-512 512zM512 32c-229.75 0-416 186.25-416 416s186.25 416 416 416 416-186.25 416-416-186.25-416-416-416z" />
<glyph unicode="heavystop" glyph-name="heavy-stop" d="M128 832h768v-768h-768z" />
<glyph unicode="heavyrewind" glyph-name="heavy-rewind" d="M576 800v-320l320 320v-704l-320 320v-320l-352 352z" />
<glyph unicode="heavyprevious" glyph-name="heavy-previous" d="M256 64v768h128v-352l320 320v-704l-320 320v-352z" />
<glyph unicode="heavyplay" glyph-name="heavy-play" d="M192 832l640-384-640-384z" />
<glyph unicode="heavypause" glyph-name="heavy-pause" d="M128 832h320v-768h-320zM576 832h320v-768h-320z" />
<glyph unicode="heavynotification" glyph-name="heavy-notification" horiz-adv-x="896" d="M448 896c-247.438 0-448-200.562-448-448s200.562-448 448-448c247.438 0 448 200.562 448 448s-200.562 448-448 448zM448 128c-176.781 0-320 143.25-320 320 0 176.781 143.219 320 320 320 176.75 0 320-143.219 320-320 0-176.75-143.25-320-320-320zM384 192h128v128h-128v-128zM384 384h128v320h-128v-320z" />
<glyph unicode="heavynext" glyph-name="heavy-next" d="M768 832v-768h-128v352l-320-320v704l320-320v352z" />
<glyph unicode="heavyinfo" glyph-name="heavy-info" horiz-adv-x="896" d="M448 576c35 0 64 29 64 64s-29 64-64 64-64-29-64-64 29-64 64-64zM448 896c-247 0-448-201-448-448s201-448 448-448 448 201 448 448-201 448-448 448zM448 128c-177 0-320 143-320 320s143 320 320 320 320-143 320-320-143-320-320-320zM512 448c0 32-32 64-64 64s-32 0-64 0-64-32-64-64h64s0-160 0-192 32-64 64-64 32 0 64 0 64 32 64 64h-64s0 160 0 192z" />
<glyph unicode="heavyforward" glyph-name="heavy-forward" d="M512 96v320l-320-320v704l320-320v320l352-352z" />
<glyph unicode="heavy-stop" glyph-name="heavy-stop" d="M128 832h768v-768h-768z" />
<glyph unicode="heavy-rewind" glyph-name="heavy-rewind" d="M576 800v-320l320 320v-704l-320 320v-320l-352 352z" />
<glyph unicode="heavy-previous" glyph-name="heavy-previous" d="M256 64v768h128v-352l320 320v-704l-320 320v-352z" />
<glyph unicode="heavy-play" glyph-name="heavy-play" d="M192 832l640-384-640-384z" />
<glyph unicode="heavy-pause" glyph-name="heavy-pause" d="M128 832h320v-768h-320zM576 832h320v-768h-320z" />
<glyph unicode="heavy-notification" glyph-name="heavy-notification" horiz-adv-x="896" d="M448 896c-247.438 0-448-200.562-448-448s200.562-448 448-448c247.438 0 448 200.562 448 448s-200.562 448-448 448zM448 128c-176.781 0-320 143.25-320 320 0 176.781 143.219 320 320 320 176.75 0 320-143.219 320-320 0-176.75-143.25-320-320-320zM384 192h128v128h-128v-128zM384 384h128v320h-128v-320z" />
<glyph unicode="heavy-next" glyph-name="heavy-next" d="M768 832v-768h-128v352l-320-320v704l320-320v352z" />
<glyph unicode="heavy-info" glyph-name="heavy-info" horiz-adv-x="896" d="M448 576c35 0 64 29 64 64s-29 64-64 64-64-29-64-64 29-64 64-64zM448 896c-247 0-448-201-448-448s201-448 448-448 448 201 448 448-201 448-448 448zM448 128c-177 0-320 143-320 320s143 320 320 320 320-143 320-320-143-320-320-320zM512 448c0 32-32 64-64 64s-32 0-64 0-64-32-64-64h64s0-160 0-192 32-64 64-64 32 0 64 0 64 32 64 64h-64s0 160 0 192z" />
<glyph unicode="heavy-forward" glyph-name="heavy-forward" d="M512 96v320l-320-320v704l320-320v320l352-352z" />
<glyph unicode="heavy stop" glyph-name="heavy-stop" d="M128 832h768v-768h-768z" />
<glyph unicode="heavy rewind" glyph-name="heavy-rewind" d="M576 800v-320l320 320v-704l-320 320v-320l-352 352z" />
<glyph unicode="heavy previous" glyph-name="heavy-previous" d="M256 64v768h128v-352l320 320v-704l-320 320v-352z" />
<glyph unicode="heavy play" glyph-name="heavy-play" d="M192 832l640-384-640-384z" />
<glyph unicode="heavy pause" glyph-name="heavy-pause" d="M128 832h320v-768h-320zM576 832h320v-768h-320z" />
<glyph unicode="heavy notification" glyph-name="heavy-notification" horiz-adv-x="896" d="M448 896c-247.438 0-448-200.562-448-448s200.562-448 448-448c247.438 0 448 200.562 448 448s-200.562 448-448 448zM448 128c-176.781 0-320 143.25-320 320 0 176.781 143.219 320 320 320 176.75 0 320-143.219 320-320 0-176.75-143.25-320-320-320zM384 192h128v128h-128v-128zM384 384h128v320h-128v-320z" />
<glyph unicode="heavy next" glyph-name="heavy-next" d="M768 832v-768h-128v352l-320-320v704l320-320v352z" />
<glyph unicode="heavy info" glyph-name="heavy-info" horiz-adv-x="896" d="M448 576c35 0 64 29 64 64s-29 64-64 64-64-29-64-64 29-64 64-64zM448 896c-247 0-448-201-448-448s201-448 448-448 448 201 448 448-201 448-448 448zM448 128c-177 0-320 143-320 320s143 320 320 320 320-143 320-320-143-320-320-320zM512 448c0 32-32 64-64 64s-32 0-64 0-64-32-64-64h64s0-160 0-192 32-64 64-64 32 0 64 0 64 32 64 64h-64s0 160 0 192z" />
<glyph unicode="heavy forward" glyph-name="heavy-forward" d="M512 96v320l-320-320v704l320-320v320l352-352z" />
<glyph unicode="fullscreen" glyph-name="fullscreen" horiz-adv-x="895" d="M128 192h639.875v512h-639.875v-512zM255.938 576h384v-256h-384v256zM64 767.938h191.938v64h-255.938v-255.938h64v191.938zM64 320h-64v-255.938h255.938v63.938h-191.938v192zM639.938 831.938v-64h191.938v-191.938h64v255.938h-255.938zM831.875 128h-191.937v-63.938h255.938v255.938h-64v-192z" />
<glyph unicode="full-screen" glyph-name="fullscreen" horiz-adv-x="895" d="M128 192h639.875v512h-639.875v-512zM255.938 576h384v-256h-384v256zM64 767.938h191.938v64h-255.938v-255.938h64v191.938zM64 320h-64v-255.938h255.938v63.938h-191.938v192zM639.938 831.938v-64h191.938v-191.938h64v255.938h-255.938zM831.875 128h-191.937v-63.938h255.938v255.938h-64v-192z" />
<glyph unicode="forward" glyph-name="forward" horiz-adv-x="768" d="M0 192l384 256-384 256v-512zM768 448l-384 256v-512l384 256z" />
<glyph unicode="first" glyph-name="first" d="M128 64v768h128v-352l320 320v-320l320 320v-704l-320 320v-320l-320 320v-352z" />
<glyph unicode="expand" glyph-name="expand" d="M1024 960h-416l160-160-192-192 96-96 192 192 160-160zM1024-64v416l-160-160-192 192-96-96 192-192-160-160zM0-64h416l-160 160 192 192-96 96-192-192-160 160zM0 960v-416l160 160 192-192 96 96-192 192 160 160z" />
<glyph unicode="error" glyph-name="error" d="M512 960c-282.77 0-512-229.23-512-512s229.23-512 512-512 512 229.23 512 512-229.23 512-512 512zM512 32c-229.75 0-416 186.25-416 416s186.25 416 416 416 416-186.25 416-416-186.25-416-416-416zM672 704l-160-160-160 160-96-96 160-160-160-160 96-96 160 160 160-160 96 96-160 160 160 160z" />
<glyph unicode="eject" glyph-name="eject" d="M0 192h1024v-128h-1024zM512 832l512-512h-1024z" />
<glyph unicode="down" glyph-name="down" horiz-adv-x="640" d="M512 640l-192-192-192 192-128-128 320-320 320 320-128 128z" />
<glyph unicode="controls" glyph-name="controls" horiz-adv-x="896" d="M64 64h128v192h-128v-192zM192 832h-128v-320h128v320zM512 832h-128v-128h128v128zM0 320h256v128h-256v-128zM384 64h128v384h-128v-384zM320 512h256v128h-256v-128zM832 832h-128v-384h128v384zM640 384v-128h256v128h-256zM704 64h128v128h-128v-128z" />
<glyph unicode="compactmenu" glyph-name="compact-menu" d="M64 768h896v-192h-896zM64 512h896v-192h-896zM64 256h896v-192h-896z" />
<glyph unicode="compact-menu" glyph-name="compact-menu" d="M64 768h896v-192h-896zM64 512h896v-192h-896zM64 256h896v-192h-896z" />
<glyph unicode="compact menu" glyph-name="compact-menu" d="M64 768h896v-192h-896zM64 512h896v-192h-896zM64 256h896v-192h-896z" />
<glyph unicode="checkmark" glyph-name="checkmark" d="M864 832l-480-480-224 224-160-160 384-384 640 640z" />
<glyph unicode="checkboxunchecked" glyph-name="checkbox-unchecked" d="M896 960h-768c-70.4 0-128-57.6-128-128v-768c0-70.4 57.6-128 128-128h768c70.4 0 128 57.6 128 128v768c0 70.4-57.6 128-128 128zM896 64h-768v768h768v-768z" />
<glyph unicode="checkboxchecked" glyph-name="checkbox-checked" d="M896 960h-768c-70.4 0-128-57.6-128-128v-768c0-70.4 57.6-128 128-128h768c70.4 0 128 57.6 128 128v768c0 70.4-57.6 128-128 128zM448 165.49l-237.254 237.256 90.51 90.508 146.744-146.744 306.746 306.746 90.508-90.51-397.254-397.256z" />
<glyph unicode="checkbox-unchecked" glyph-name="checkbox-unchecked" d="M896 960h-768c-70.4 0-128-57.6-128-128v-768c0-70.4 57.6-128 128-128h768c70.4 0 128 57.6 128 128v768c0 70.4-57.6 128-128 128zM896 64h-768v768h768v-768z" />
<glyph unicode="checkbox-checked" glyph-name="checkbox-checked" d="M896 960h-768c-70.4 0-128-57.6-128-128v-768c0-70.4 57.6-128 128-128h768c70.4 0 128 57.6 128 128v768c0 70.4-57.6 128-128 128zM448 165.49l-237.254 237.256 90.51 90.508 146.744-146.744 306.746 306.746 90.508-90.51-397.254-397.256z" />
<glyph unicode="checkbox unchecked" glyph-name="checkbox-unchecked" d="M896 960h-768c-70.4 0-128-57.6-128-128v-768c0-70.4 57.6-128 128-128h768c70.4 0 128 57.6 128 128v768c0 70.4-57.6 128-128 128zM896 64h-768v768h768v-768z" />
<glyph unicode="checkbox checked" glyph-name="checkbox-checked" d="M896 960h-768c-70.4 0-128-57.6-128-128v-768c0-70.4 57.6-128 128-128h768c70.4 0 128 57.6 128 128v768c0 70.4-57.6 128-128 128zM448 165.49l-237.254 237.256 90.51 90.508 146.744-146.744 306.746 306.746 90.508-90.51-397.254-397.256z" />
<glyph unicode="cancel" glyph-name="xmark" d="M1014.662 137.34c-0.004 0.004-0.008 0.008-0.012 0.010l-310.644 310.65 310.644 310.65c0.004 0.004 0.008 0.006 0.012 0.010 3.344 3.346 5.762 7.254 7.312 11.416 4.246 11.376 1.824 24.682-7.324 33.83l-146.746 146.746c-9.148 9.146-22.45 11.566-33.828 7.32-4.16-1.55-8.070-3.968-11.418-7.31 0-0.004-0.004-0.006-0.008-0.010l-310.648-310.652-310.648 310.65c-0.004 0.004-0.006 0.006-0.010 0.010-3.346 3.342-7.254 5.76-11.414 7.31-11.38 4.248-24.682 1.826-33.83-7.32l-146.748-146.748c-9.148-9.148-11.568-22.452-7.322-33.828 1.552-4.16 3.97-8.072 7.312-11.416 0.004-0.002 0.006-0.006 0.010-0.010l310.65-310.648-310.65-310.652c-0.002-0.004-0.006-0.006-0.008-0.010-3.342-3.346-5.76-7.254-7.314-11.414-4.248-11.376-1.826-24.682 7.322-33.83l146.748-146.746c9.15-9.148 22.452-11.568 33.83-7.322 4.16 1.552 8.070 3.97 11.416 7.312 0.002 0.004 0.006 0.006 0.010 0.010l310.648 310.65 310.648-310.65c0.004-0.002 0.008-0.006 0.012-0.008 3.348-3.344 7.254-5.762 11.414-7.314 11.378-4.246 24.684-1.826 33.828 7.322l146.746 146.748c9.148 9.148 11.57 22.454 7.324 33.83-1.552 4.16-3.97 8.068-7.314 11.414z" />
<glyph unicode="bottom" glyph-name="bottom" horiz-adv-x="768" d="M767.75 768h-767.5l383.75-383.75 383.75 383.75zM0 256v-128h768v128h-768z" />
<glyph unicode="blackcircle" glyph-name="radio-checked" d="M512 69.12c-208.914 0-378.88 169.964-378.88 378.88 0 208.914 169.966 378.88 378.88 378.88 208.916 0 378.88-169.966 378.88-378.88 0-208.916-169.964-378.88-378.88-378.88zM512 796.16c92.996 0 180.429-36.215 246.186-101.974 65.757-65.757 101.974-153.188 101.974-246.186 0-92.996-36.217-180.429-101.974-246.186s-153.19-101.974-246.186-101.974c-92.998 0-180.429 36.217-246.186 101.974-65.759 65.757-101.974 153.19-101.974 246.186 0 92.998 36.215 180.429 101.974 246.186 65.757 65.759 153.188 101.974 246.186 101.974zM512 857.6c-226.216 0-409.6-183.384-409.6-409.6s183.384-409.6 409.6-409.6 409.6 183.384 409.6 409.6-183.384 409.6-409.6 409.6v0z" />
<glyph unicode="black-circle" glyph-name="radio-checked" d="M512 69.12c-208.914 0-378.88 169.964-378.88 378.88 0 208.914 169.966 378.88 378.88 378.88 208.916 0 378.88-169.966 378.88-378.88 0-208.916-169.964-378.88-378.88-378.88zM512 796.16c92.996 0 180.429-36.215 246.186-101.974 65.757-65.757 101.974-153.188 101.974-246.186 0-92.996-36.217-180.429-101.974-246.186s-153.19-101.974-246.186-101.974c-92.998 0-180.429 36.217-246.186 101.974-65.759 65.757-101.974 153.19-101.974 246.186 0 92.998 36.215 180.429 101.974 246.186 65.757 65.759 153.188 101.974 246.186 101.974zM512 857.6c-226.216 0-409.6-183.384-409.6-409.6s183.384-409.6 409.6-409.6 409.6 183.384 409.6 409.6-183.384 409.6-409.6 409.6v0z" />
<glyph unicode="black circle" glyph-name="radio-checked" d="M512 69.12c-208.914 0-378.88 169.964-378.88 378.88 0 208.914 169.966 378.88 378.88 378.88 208.916 0 378.88-169.966 378.88-378.88 0-208.916-169.964-378.88-378.88-378.88zM512 796.16c92.996 0 180.429-36.215 246.186-101.974 65.757-65.757 101.974-153.188 101.974-246.186 0-92.996-36.217-180.429-101.974-246.186s-153.19-101.974-246.186-101.974c-92.998 0-180.429 36.217-246.186 101.974-65.759 65.757-101.974 153.19-101.974 246.186 0 92.998 36.215 180.429 101.974 246.186 65.757 65.759 153.188 101.974 246.186 101.974zM512 857.6c-226.216 0-409.6-183.384-409.6-409.6s183.384-409.6 409.6-409.6 409.6 183.384 409.6 409.6-183.384 409.6-409.6 409.6v0z" />
<glyph unicode="backward" glyph-name="rewind" horiz-adv-x="768" d="M384 448l384-256v512l-384-256zM0 448l384-256v512l-384-256z" />
<glyph unicode="add" glyph-name="plus" d="M992 576h-352v352c0 17.672-14.328 32-32 32h-192c-17.672 0-32-14.328-32-32v-352h-352c-17.672 0-32-14.328-32-32v-192c0-17.672 14.328-32 32-32h352v-352c0-17.672 14.328-32 32-32h192c17.672 0 32 14.328 32 32v352h352c17.672 0 32 14.328 32 32v192c0 17.672-14.328 32-32 32z" />
<glyph unicode="CCon" glyph-name="cc-on" d="M-0.415 768.26v-640.519h1024.83v640.519h-1024.83zM352.011 342.225c19.951 0 38.985 2.224 57.706 6.669 18.716 4.443 38.231 9.787 56.165 16.044v-82.448c-35.869-13.331-79.927-19.994-127.442-19.994-68.092 0-120.141 15.798-156.443 47.395-36.309 31.596-54.385 77.26-54.385 136.997 0 37.357 8.831 70.186 26.42 98.492 17.586 28.303 42.91 50.069 75.922 65.292 33.015 15.218 71.851 22.833 116.492 22.833 48.748 0 95.35-8.481 139.784-25.424l-37.334-76.77c-16.663 6.254-33.322 11.516-49.986 15.801-16.661 4.278-34.557 6.418-53.685 6.418-29.005 0-51.636-9.5-67.885-28.508-16.251-19.008-24.378-45.216-24.378-78.625 0.003-69.447 33.018-104.171 99.050-104.171zM762.085 342.225c19.953 0 38.913 2.224 57.634 6.669 18.718 4.443 38.162 9.787 56.096 16.044v-82.448c-35.869-13.331-79.855-19.994-127.371-19.994-68.092 0-120.105 15.798-156.407 47.395-36.309 31.596-54.367 77.26-54.367 136.997 0 37.357 8.839 70.186 26.427 98.492 17.583 28.303 42.915 50.069 75.929 65.292 33.015 15.218 71.851 22.833 116.492 22.833 48.748 0 95.353-8.481 139.787-25.424l-37.332-76.77c-16.666 6.254-33.325 11.516-49.991 15.801-16.661 4.278-34.555 6.418-53.683 6.418-29.005 0-51.636-9.5-67.882-28.508-16.254-19.008-24.381-45.216-24.381-78.625 0-69.447 33.018-104.171 99.047-104.171z" />
<glyph unicode="CCoff" glyph-name="cc-off" d="M345.359 553.439c-28.982 0-51.594-9.492-67.83-28.485-16.238-18.993-24.358-45.179-24.358-78.561 0-69.389 32.991-104.084 98.967-104.084 19.935 0 39.255 2.222 57.964 6.664 18.701 4.439 37.509 9.779 56.422 16.031v-82.381c-37.617-13.32-80.164-19.978-127.642-19.978-68.037 0-120.195 15.785-156.467 47.357-36.28 31.572-54.415 77.199-54.415 136.888 0 37.327 8.788 70.129 26.36 98.412 17.572 28.28 42.854 50.028 75.843 65.239 32.988 15.206 71.785 22.815 116.388 22.815 48.709 0 95.268-8.474 139.666-25.403l-37.307-76.708c-16.65 6.249-33.295 11.507-49.948 15.788-16.648 4.273-34.529 6.408-53.642 6.408zM755.103 553.439c-28.982 0-51.594-9.492-67.827-28.485-16.241-18.993-24.361-45.179-24.361-78.561 0-69.389 32.991-104.084 98.967-104.084 19.937 0 39.258 2.222 57.964 6.664 18.703 4.439 37.509 9.779 56.425 16.031v-82.381c-37.617-13.32-80.164-19.978-127.642-19.978-68.037 0-120.195 15.785-156.467 47.357-36.28 31.57-54.418 77.197-54.418 136.886 0 37.327 8.788 70.129 26.363 98.412 17.569 28.28 42.854 50.028 75.843 65.239 32.988 15.206 71.782 22.815 116.388 22.815 48.709 0 95.268-8.474 139.666-25.403l-37.304-76.708c-16.653 6.249-33.298 11.507-49.951 15.788-16.65 4.275-34.532 6.41-53.645 6.41z" />
<glyph unicode="CC-on" glyph-name="cc-on" d="M-0.415 768.26v-640.519h1024.83v640.519h-1024.83zM352.011 342.225c19.951 0 38.985 2.224 57.706 6.669 18.716 4.443 38.231 9.787 56.165 16.044v-82.448c-35.869-13.331-79.927-19.994-127.442-19.994-68.092 0-120.141 15.798-156.443 47.395-36.309 31.596-54.385 77.26-54.385 136.997 0 37.357 8.831 70.186 26.42 98.492 17.586 28.303 42.91 50.069 75.922 65.292 33.015 15.218 71.851 22.833 116.492 22.833 48.748 0 95.35-8.481 139.784-25.424l-37.334-76.77c-16.663 6.254-33.322 11.516-49.986 15.801-16.661 4.278-34.557 6.418-53.685 6.418-29.005 0-51.636-9.5-67.885-28.508-16.251-19.008-24.378-45.216-24.378-78.625 0.003-69.447 33.018-104.171 99.050-104.171zM762.085 342.225c19.953 0 38.913 2.224 57.634 6.669 18.718 4.443 38.162 9.787 56.096 16.044v-82.448c-35.869-13.331-79.855-19.994-127.371-19.994-68.092 0-120.105 15.798-156.407 47.395-36.309 31.596-54.367 77.26-54.367 136.997 0 37.357 8.839 70.186 26.427 98.492 17.583 28.303 42.915 50.069 75.929 65.292 33.015 15.218 71.851 22.833 116.492 22.833 48.748 0 95.353-8.481 139.787-25.424l-37.332-76.77c-16.666 6.254-33.325 11.516-49.991 15.801-16.661 4.278-34.555 6.418-53.683 6.418-29.005 0-51.636-9.5-67.882-28.508-16.254-19.008-24.381-45.216-24.381-78.625 0-69.447 33.018-104.171 99.047-104.171z" />
<glyph unicode="CC-off" glyph-name="cc-off" d="M345.359 553.439c-28.982 0-51.594-9.492-67.83-28.485-16.238-18.993-24.358-45.179-24.358-78.561 0-69.389 32.991-104.084 98.967-104.084 19.935 0 39.255 2.222 57.964 6.664 18.701 4.439 37.509 9.779 56.422 16.031v-82.381c-37.617-13.32-80.164-19.978-127.642-19.978-68.037 0-120.195 15.785-156.467 47.357-36.28 31.572-54.415 77.199-54.415 136.888 0 37.327 8.788 70.129 26.36 98.412 17.572 28.28 42.854 50.028 75.843 65.239 32.988 15.206 71.785 22.815 116.388 22.815 48.709 0 95.268-8.474 139.666-25.403l-37.307-76.708c-16.65 6.249-33.295 11.507-49.948 15.788-16.648 4.273-34.529 6.408-53.642 6.408zM755.103 553.439c-28.982 0-51.594-9.492-67.827-28.485-16.241-18.993-24.361-45.179-24.361-78.561 0-69.389 32.991-104.084 98.967-104.084 19.937 0 39.258 2.222 57.964 6.664 18.703 4.439 37.509 9.779 56.425 16.031v-82.381c-37.617-13.32-80.164-19.978-127.642-19.978-68.037 0-120.195 15.785-156.467 47.357-36.28 31.57-54.418 77.197-54.418 136.886 0 37.327 8.788 70.129 26.363 98.412 17.569 28.28 42.854 50.028 75.843 65.239 32.988 15.206 71.782 22.815 116.388 22.815 48.709 0 95.268-8.474 139.666-25.403l-37.304-76.708c-16.653 6.249-33.298 11.507-49.951 15.788-16.65 4.275-34.532 6.41-53.645 6.41z" />
<glyph unicode="CC on" glyph-name="cc-on" d="M-0.415 768.26v-640.519h1024.83v640.519h-1024.83zM352.011 342.225c19.951 0 38.985 2.224 57.706 6.669 18.716 4.443 38.231 9.787 56.165 16.044v-82.448c-35.869-13.331-79.927-19.994-127.442-19.994-68.092 0-120.141 15.798-156.443 47.395-36.309 31.596-54.385 77.26-54.385 136.997 0 37.357 8.831 70.186 26.42 98.492 17.586 28.303 42.91 50.069 75.922 65.292 33.015 15.218 71.851 22.833 116.492 22.833 48.748 0 95.35-8.481 139.784-25.424l-37.334-76.77c-16.663 6.254-33.322 11.516-49.986 15.801-16.661 4.278-34.557 6.418-53.685 6.418-29.005 0-51.636-9.5-67.885-28.508-16.251-19.008-24.378-45.216-24.378-78.625 0.003-69.447 33.018-104.171 99.050-104.171zM762.085 342.225c19.953 0 38.913 2.224 57.634 6.669 18.718 4.443 38.162 9.787 56.096 16.044v-82.448c-35.869-13.331-79.855-19.994-127.371-19.994-68.092 0-120.105 15.798-156.407 47.395-36.309 31.596-54.367 77.26-54.367 136.997 0 37.357 8.839 70.186 26.427 98.492 17.583 28.303 42.915 50.069 75.929 65.292 33.015 15.218 71.851 22.833 116.492 22.833 48.748 0 95.353-8.481 139.787-25.424l-37.332-76.77c-16.666 6.254-33.325 11.516-49.991 15.801-16.661 4.278-34.555 6.418-53.683 6.418-29.005 0-51.636-9.5-67.882-28.508-16.254-19.008-24.381-45.216-24.381-78.625 0-69.447 33.018-104.171 99.047-104.171z" />
<glyph unicode="CC off" glyph-name="cc-off" d="M345.359 553.439c-28.982 0-51.594-9.492-67.83-28.485-16.238-18.993-24.358-45.179-24.358-78.561 0-69.389 32.991-104.084 98.967-104.084 19.935 0 39.255 2.222 57.964 6.664 18.701 4.439 37.509 9.779 56.422 16.031v-82.381c-37.617-13.32-80.164-19.978-127.642-19.978-68.037 0-120.195 15.785-156.467 47.357-36.28 31.572-54.415 77.199-54.415 136.888 0 37.327 8.788 70.129 26.36 98.412 17.572 28.28 42.854 50.028 75.843 65.239 32.988 15.206 71.785 22.815 116.388 22.815 48.709 0 95.268-8.474 139.666-25.403l-37.307-76.708c-16.65 6.249-33.295 11.507-49.948 15.788-16.648 4.273-34.529 6.408-53.642 6.408zM755.103 553.439c-28.982 0-51.594-9.492-67.827-28.485-16.241-18.993-24.361-45.179-24.361-78.561 0-69.389 32.991-104.084 98.967-104.084 19.937 0 39.258 2.222 57.964 6.664 18.703 4.439 37.509 9.779 56.425 16.031v-82.381c-37.617-13.32-80.164-19.978-127.642-19.978-68.037 0-120.195 15.785-156.467 47.357-36.28 31.57-54.418 77.197-54.418 136.886 0 37.327 8.788 70.129 26.363 98.412 17.569 28.28 42.854 50.028 75.843 65.239 32.988 15.206 71.782 22.815 116.388 22.815 48.709 0 95.268-8.474 139.666-25.403l-37.304-76.708c-16.653 6.249-33.298 11.507-49.951 15.788-16.65 4.275-34.532 6.41-53.645 6.41z" />
</font>
</defs>
</svg>
